<svg xmlns="http://www.w3.org/2000/svg"><defs><font id="ficon" horiz-adv-x="1000"><font-face ascent="850" descent="-150" font-family="ficon" font-weight="400"/><glyph d="M500 305c-5 0-11 1-16 4L263 437c-15 8-20 28-11 42 9 15 28 20 43 11l205-118 204 118c15 8 34 3 43-12 8-15 3-34-12-42L516 309c-5-2-11-4-16-4zm0-227c-17 0-31 15-31 32v226c0 17 14 32 31 32s31-15 31-32V110c0-17-14-32-31-32zm0-9c-24 0-48 5-67 16l-133 74c-40 22-71 75-71 121v141c0 45 31 99 71 121l133 74c38 21 96 21 134 0l133-74c40-22 71-75 71-121V280c0-46-31-99-71-121L567 85c-19-11-43-16-67-16zm0 500c-14 0-27-3-37-8l-133-74c-20-12-39-43-39-66V280c0-24 19-55 39-66l133-74c20-11 55-11 74 0l133 74c20 11 39 43 39 66v141c0 23-19 54-39 66l-133 74c-10 5-23 8-37 8zM625-98c-11 0-22 6-27 16s-5 22 0 32l44 73c9 14 28 19 43 10 15-8 20-28 11-43l-11-18C800-1 886 102 886 225c0 18 14 32 31 32s31-14 31-32C948 47 803-98 625-98zM83 444c-17 0-31 14-31 31 0 178 145 323 323 323 11 0 22-6 27-16 6-10 6-22 0-32l-44-72c-9-15-28-20-43-11-15 8-20 28-11 43l11 18c-115-27-201-130-201-253 1-17-14-31-31-31z" glyph-name="3d-rotate" horiz-adv-x="1000" unicode=""/><glyph d="M625-98H375C149-98 52-1 52 225v250c0 226 97 323 323 323h250c226 0 323-97 323-323V225C948-1 851-98 625-98zM375 735c-192 0-260-68-260-260V225c0-192 68-260 260-260h250c192 0 260 68 260 260v250c0 192-68 260-260 260H375zm125-430c-5 0-11 1-16 4L263 437c-15 8-20 28-11 42 9 15 28 20 43 11l205-118 203 118c15 8 35 3 43-12 8-14 3-34-11-42L515 309c-4-2-10-4-15-4zm0-227c-17 0-31 15-31 32v226c0 17 14 32 31 32s31-15 31-32V110c0-17-14-32-31-32zm0-9c-24 0-48 5-67 16l-133 74c-40 22-71 75-71 121v141c0 45 31 98 71 121l133 74c38 21 96 21 134 0l133-74c40-22 71-75 71-121V280c0-46-31-99-71-121L567 85c-19-11-43-16-67-16zm0 500c-14 0-27-3-37-8l-133-74c-20-12-39-43-39-66V280c0-24 19-55 39-66l133-74c20-11 55-11 74 0l133 74c20 11 39 43 39 66v141c0 23-19 54-39 66l-133 74c-10 5-23 8-37 8z" glyph-name="3d-square" horiz-adv-x="1000" unicode=""/><glyph d="M500 340c-18 0-37 4-53 13L175 499c-24 14-40 40-40 69s16 55 40 69l272 146c33 18 73 18 106 0l271-146c25-14 40-40 40-69s-15-55-40-69L553 353c-16-9-35-13-53-13zm0 394c-8 0-16-2-24-6L205 582c-7-4-7-12-7-14 0-3 0-10 7-14l272-146c15-8 32-8 47 0l271 146c7 4 8 12 8 14s-1 10-8 14L524 728c-8 4-16 6-24 6zM408-97c-12 0-24 3-35 9L120 38c-42 21-68 63-68 110v239c0 27 14 51 37 66 23 14 51 15 75 3l253-126c42-21 68-63 68-111V-19c0-27-14-52-37-66-12-8-26-12-40-12zM130 402c-4 0-7-2-8-2-3-2-7-6-7-13V148c0-23 13-44 33-55L400-33c7-3 13-1 15 0 3 2 7 6 7 13v239c0 23-13 44-34 55L136 400c-2 1-4 2-6 2zM593-97c-15 0-29 4-41 12-23 14-37 39-37 66v238c0 47 26 90 68 111l252 126c25 12 53 11 76-3s37-39 37-66V149c0-47-27-90-69-111L627-88c-11-6-23-9-34-9zm277 499c-2 0-4-1-6-2L612 274c-21-11-34-31-34-55V-20c0-7 5-11 7-13 3-1 8-3 15 0L852 93c21 11 33 32 33 55v239c0 7-4 11-7 13-1 0-4 2-8 2z" glyph-name="3dcube" horiz-adv-x="1000" unicode=""/><glyph d="M390-98H193C97-98 52-53 52 43v197c0 97 45 141 141 141h99c17 0 31-14 31-31v-99c0-61 17-78 78-78h99c17 0 31-14 31-31V43c0-96-44-141-141-141zM193 319c-61 0-78-18-78-79V43c0-61 17-78 78-78h197c61 0 79 17 79 78v67h-68c-96 0-141 45-141 141v68h-67zm406-209H401c-96 0-141 45-141 141v198c0 96 45 141 141 141h99c17 0 31-15 31-32v-98c0-61 18-79 78-79h99c17 0 32-14 32-31v-99c0-96-45-141-141-141zM401 527c-61 0-78-17-78-78V251c0-61 17-78 78-78h198c61 0 78 17 78 78v68h-68c-96 0-140 44-140 141v67h-68zm406-208H609c-96 0-140 44-140 141v198c0 95 44 140 140 140h198c96 0 141-45 141-140V460c0-97-45-141-141-141zM609 735c-60 0-78-17-78-77V460c0-61 18-79 78-79h198c61 0 78 18 78 79v198c0 60-17 77-78 77H609z" glyph-name="3square" horiz-adv-x="1000" unicode=""/><glyph d="M500-98c-29 0-59 11-81 33L348 6c-18 17-41 27-66 27h-32c-86 0-156 70-156 155v455c0 85 70 155 156 155h500c86 0 156-70 156-155V188c0-85-70-155-156-155h-32c-25 0-48-10-66-27l-71-71c-22-22-52-33-81-33zM250 735c-52 0-94-41-94-92V188c0-51 42-92 94-92h32c41 0 81-16 110-46l71-70c21-20 54-20 74 0l71 70c30 30 69 46 111 46h31c52 0 94 42 94 92v455c0 51-42 92-94 92H250zm183-490H321c-18 0-36 9-46 24-11 14-13 32-8 49 14 44 50 68 82 90 33 22 52 37 52 61 0 21-18 39-39 39-22 0-39-18-39-39 0-17-15-31-32-31s-31 14-31 31c0 56 45 101 102 101 56 0 101-45 101-101 0-59-44-89-79-113-22-15-43-29-54-48h102c17 0 31-14 31-31s-13-32-30-32zm235 0c-17 0-31 15-31 32v28h-82c-20 0-39 11-50 29-10 18-10 40 0 57 29 49 62 104 92 153 13 21 38 31 62 24s41-29 40-54V368h9c17 0 32-15 32-32s-15-31-32-31h-8v-29c0-17-14-31-32-31zm-31 245c-24-40-50-83-73-122h73v122z" glyph-name="24-support" horiz-adv-x="1000" unicode=""/><glyph d="M625-98H375C149-98 52-1 52 225v250c0 226 97 323 323 323h250c226 0 323-97 323-323V225C948-1 851-98 625-98zM375 735c-192 0-260-68-260-260V225c0-192 68-260 260-260h250c192 0 260 68 260 260v250c0 192-68 260-260 260H375zm-70-520c-6 0-13 2-19 7-13 10-16 30-6 43l100 129c12 16 29 26 48 28 20 3 39-3 55-15l76-60c3-2 6-2 8-2 1 0 4 1 7 4l96 124c10 14 30 17 44 6s16-30 5-44l-96-124c-12-16-29-26-49-28-19-2-39 3-54 15l-76 60c-3 3-6 3-8 2-2 0-5 0-7-4l-99-128c-6-9-15-13-25-13z" glyph-name="activity" horiz-adv-x="1000" unicode=""/><glyph d="M500-98C253-98 52 103 52 350s201 448 448 448 448-201 448-448S747-98 500-98zm0 833c-212 0-385-172-385-385 0-212 173-385 385-385 213 0 385 173 385 385 0 213-172 385-385 385zm167-416H333c-17 0-31 14-31 31s14 31 31 31h334c17 0 31-14 31-31s-14-31-31-31zM500 152c-17 0-31 14-31 31v334c0 17 14 31 31 31s31-14 31-31V183c0-17-14-31-31-31z" glyph-name="add-circle" horiz-adv-x="1000" unicode=""/><glyph d="M667 319H333c-17 0-31 14-31 31s14 31 31 31h334c17 0 31-14 31-31s-14-31-31-31zM500 152c-17 0-31 14-31 31v334c0 17 14 31 31 31s31-14 31-31V183c0-17-14-31-31-31zM625-98H375C149-98 52-1 52 225v250c0 226 97 323 323 323h250c226 0 323-97 323-323V225C948-1 851-98 625-98zM375 735c-192 0-260-68-260-260V225c0-192 68-260 260-260h250c192 0 260 68 260 260v250c0 192-68 260-260 260H375z" glyph-name="add-square" horiz-adv-x="1000" unicode=""/><glyph d="M750 319H250c-17 0-31 14-31 31s14 31 31 31h500c17 0 31-14 31-31s-14-31-31-31zM500 69c-17 0-31 14-31 31v500c0 17 14 31 31 31s31-14 31-31V100c0-17-14-31-31-31z" glyph-name="add" horiz-adv-x="1000" unicode=""/><glyph d="M333 152H226c-112 0-174 62-174 174v298c0 112 62 174 174 174h191c112 0 174-62 174-174 0-17-14-31-31-31s-32 14-32 31c0 78-33 111-111 111H226c-78 0-111-33-111-111V326c0-78 33-111 111-111h107c17 0 32-15 32-32s-15-31-32-31zM774-98H583C471-98 409-36 409 76v298c0 112 62 174 174 174h191c112 0 174-62 174-174V76c0-112-62-174-174-174zM583 485c-78 0-111-33-111-111V76c0-78 33-111 111-111h191c78 0 111 33 111 111v298c0 78-33 111-111 111H583zm173-291H620c-17 0-31 14-31 31s14 31 31 31h136c17 0 31-14 31-31s-14-31-31-31zm-68-68c-18 0-32 14-32 31v136c0 17 14 31 32 31 17 0 31-14 31-31V157c0-17-14-31-31-31z" glyph-name="additem" horiz-adv-x="1000" unicode=""/><glyph d="M500 278c-32 0-63 12-87 35-30 31-43 75-33 117 11 44 46 79 90 90 42 10 86-2 117-33s42-74 32-117c-10-44-45-79-89-89-10-2-20-3-30-3zm0 183c-5 0-10-1-15-2-21-5-38-22-43-43-6-22 0-43 16-58 15-15 36-21 58-16 21 5 38 22 43 43 5 22-1 43-16 58-12 12-27 18-43 18zM251 101c-8 0-16 3-21 9-81 75-127 180-127 290 0 220 178 398 397 398s398-178 398-398c0-110-45-213-126-289-12-12-32-11-44 1-12 13-11 33 1 44 69 64 106 151 106 244 0 185-150 335-335 335S165 585 165 400c0-94 38-181 107-245 13-12 13-32 2-44-6-6-15-10-23-10zm416 112c-8 0-16 2-22 8-12 12-13 32-1 44 35 37 54 85 54 135 0 109-89 198-198 198-108 0-197-89-197-198 0-50 19-98 54-135 11-12 11-32-2-44-12-12-32-11-44 1-45 48-71 112-71 178 0 143 117 260 260 260 144 0 260-117 260-260 0-66-25-130-70-178-7-6-15-9-23-9zM560-98H440c-47 0-89 27-110 69-20 43-15 92 15 129l60 75c23 29 58 46 95 46 38 0 73-17 96-46l60-75c29-37 35-86 14-129-21-42-63-69-110-69zM453 136l-60-74c-14-19-17-42-7-63 10-22 31-34 54-34h120c23 0 43 12 53 34 10 21 8 44-7 63l-60 74c-22 29-70 29-93 0z" glyph-name="airdrop" horiz-adv-x="1000" unicode=""/><glyph d="M603 24c-10 0-20 2-28 6-2 2-5 3-6 5l-70 59-68-59c-2-2-4-3-6-5-17-7-35-8-51-1-17 7-29 21-35 38l-14 40c-7 21 0 47 15 63l70 68-1 60-125-53c-21-9-43-8-59 3-17 10-26 30-26 52v39c0 33 22 67 52 80l158 68v80c0 41 27 85 64 102 17 9 38 9 56 0 36-19 63-63 63-102v-80l158-68c30-12 53-47 53-80v-39c0-22-10-42-27-52-17-11-38-13-59-4l-125 54v-61l68-68c15-16 21-42 14-63l-13-40c-6-17-18-31-35-37-8-4-16-5-23-5zM500 155c14 0 28-4 39-13l65-55 11 39-68 67c-11 11-18 28-18 44v77c0 19 8 35 22 44 14 10 33 11 50 4l139-59v36c0 8-7 20-15 23l-164 71c-18 7-31 27-31 47v87c0 16-15 39-29 46-15-7-29-30-29-46v-87c0-19-13-40-32-47l-164-71c-7-3-15-15-15-23v-36l138 58c17 8 35 7 50-3 14-9 23-25 23-45v-77c0-15-7-32-18-43l-70-69 13-36 63 53c12 9 26 14 40 14zm85 335h1-1zm40-588H375C149-98 52-1 52 225v250c0 226 97 323 323 323h250c226 0 323-97 323-323V225C948-1 851-98 625-98zM375 735c-192 0-260-68-260-260V225c0-192 68-260 260-260h250c192 0 260 68 260 260v250c0 192-68 260-260 260H375z" glyph-name="airplane-square" horiz-adv-x="1000" unicode=""/><glyph d="M358-90c-10 0-19 2-28 6-20 8-35 24-41 45l-19 55c-8 25 0 56 18 75l95 95c1 1 2 6 2 8v103l-190-82c-25-11-51-10-70 3-20 13-32 36-32 63v54c0 41 30 85 67 99l225 98v118c0 50 35 108 80 132 22 11 47 11 68 0 46-24 81-81 81-132V532l227-97c37-16 65-59 65-100v-54c0-27-11-50-31-63s-45-14-71-4l-190 82V193c0-1 2-5 3-7l95-95c18-18 26-51 18-75l-19-55c-7-21-22-37-42-45-19-8-41-7-60 2-2 2-4 3-6 4L506 4c-3 3-10 3-13 0l-97-82-6-3c-10-6-21-9-32-9zm40 455c10 0 19-2 27-8 15-9 23-26 23-45V193c0-18-9-39-21-51l-95-95c-2-2-3-9-2-11l18-56c1-4 4-5 6-6 1-1 3-2 6-1l93 79c26 23 67 23 94 0l93-78c3-1 5 0 6 0 2 1 5 3 6 7l18 55c1 3 0 9-2 11l-95 95c-12 11-21 33-21 51v119c0 19 8 35 22 45 14 9 32 11 50 3l205-88c6-3 10-3 11-2 2 1 3 5 3 11v54c0 16-13 36-27 42L583 478c-18 7-31 27-31 47v125c0 28-22 63-47 76-3 2-7 2-11 0-24-13-46-49-46-76V525c0-20-13-40-31-48L184 377c-14-6-28-27-28-42v-54c0-6 2-10 3-11s6-1 12 2l204 88c8 3 16 5 23 5z" glyph-name="airplane" horiz-adv-x="1000" unicode=""/><glyph d="M630-98H370C202-98 102-65 83 104c-3 24-5 53-5 90v312c0 36 2 66 5 91 20 169 116 201 287 201h261c172 0 268-32 287-202 4-28 5-60 5-90V194c0-36-2-65-5-91C898-66 802-98 630-98zM370 735c-177 0-213-38-225-146-3-23-5-50-5-83V194c0-34 2-60 5-82C157 3 193-35 370-35h260c177 0 213 38 225 145 3 23 5 50 5 84v312c0 28-1 57-5 82-12 109-47 147-225 147H370zm515-288H714c-17 0-31 14-31 31s14 32 31 32h171c17 0 31-15 31-32s-14-31-31-31zm-599 0H115c-17 0-31 14-31 31s14 32 31 32h171c17 0 32-15 32-32s-15-31-32-31zm342-85H372c-32 0-62 12-83 35-22 21-34 50-34 81 0 65 53 117 117 117h256c31 0 61-13 83-35 22-21 34-50 34-82 0-64-52-116-117-116zM372 533c-30 0-54-25-54-55 0-14 5-28 15-37 10-11 24-17 39-17h256c30 0 55 24 55 54 0 15-6 28-16 38-11 11-24 17-39 17H372z" glyph-name="airpod" horiz-adv-x="1000" unicode=""/><glyph d="M359 27c-61 0-110 49-110 110v284h-9c-104 0-188 84-188 189 0 104 84 188 188 188h79c83 0 149-67 149-149V138c1-62-48-111-109-111zM241 735c-70 0-126-56-126-126 0-69 56-126 126-126h39c18 0 32-14 32-31V137c0-27 21-48 47-48s48 21 48 48v511c0 48-39 87-87 87h-79zm0-196c-39 0-71 31-71 71 0 39 32 70 71 70 17 0 31-14 31-31s-14-31-31-31c-5 0-8-4-8-8 0-5 4-9 8-9 17 0 31-14 31-31s-14-31-31-31zM641 27c-61 0-110 49-110 110v512c0 82 67 149 149 149h79c104 0 189-85 189-189s-85-189-189-189h-8V137c0-61-49-110-110-110zm39 708c-47 0-86-38-86-86V137c0-26 21-47 47-47 27 0 48 21 48 47v315c0 17 14 31 31 31h40c69 0 126 57 126 127 0 69-57 126-126 126h-80v-1zm79-196c-17 0-31 14-31 31s14 31 31 31c5 0 8 4 8 9 0 4-4 8-8 8-17 0-31 14-31 31s14 31 31 31c39 0 71-32 71-70 0-39-32-71-71-71zM354-98c-17 0-31 14-31 31V58c0 17 14 32 31 32s31-15 31-32V-67c0-17-14-31-31-31zm292 0c-17 0-31 14-31 31V58c0 17 14 32 31 32s31-15 31-32V-67c0-17-14-31-31-31z" glyph-name="airpods" horiz-adv-x="1000" unicode=""/><glyph d="M917-98H83c-17 0-31 14-31 31s14 32 31 32h834c17 0 31-15 31-32s-14-31-31-31zm-42 0H125c-17 0-31 14-31 31v292c0 224 182 406 406 406s406-182 406-406V-67c0-17-14-31-31-31zM156-35h688v260c0 190-154 344-344 344S156 415 156 225V-35zm344 729c-17 0-31 14-31 31v42c0 17 14 31 31 31s31-14 31-31v-42c0-17-14-31-31-31zm-292-84c-8 0-15 3-22 10l-41 41c-12 12-12 32 0 44 12 13 32 13 44 0l41-41c13-12 13-32 0-44-6-7-14-10-22-10zm584 0c-8 0-16 3-22 10-12 12-12 32 0 44l41 41c12 13 32 13 44 0 13-12 13-32 0-44l-41-41c-6-7-14-10-22-10z" glyph-name="alarm" horiz-adv-x="1000" unicode=""/><glyph d="M710 27h-44c-83 0-124 39-124 119v492c0 17 14 31 31 31s32-14 32-31V146c0-42 8-56 61-56h44c53 0 61 14 61 56v492c0 17 14 31 32 31 17 0 31-14 31-31V146c0-80-41-119-124-119zM355 235h-43c-84 0-124 39-124 119v284c0 17 14 31 31 31s31-14 31-31V354c0-42 9-56 62-56h43c53 0 62 14 62 56v284c0 17 14 31 31 31s32-14 32-31V354c0-80-41-119-125-119zm562 375H83c-17 0-31 15-31 32s14 31 31 31h834c17 0 31-14 31-31s-14-32-31-32z" glyph-name="align-bottom" horiz-adv-x="1000" unicode=""/><glyph d="M334 6h-43c-84 0-124 39-124 119v450c0 80 41 119 124 119h43c84 0 124-39 124-119V125C458 45 418 6 334 6zm-43 625c-53 0-62-14-62-56V125c0-42 9-56 62-56h43c53 0 62 14 62 56v450c0 42-9 56-62 56h-43zM688 90h-43c-84 0-124 38-124 118v284c0 80 41 118 124 118h43c84 0 125-38 125-118V208c0-80-41-118-125-118zm-43 458c-53 0-62-14-62-56V208c0-42 9-56 62-56h43c53 0 62 14 62 56v284c0 42-9 56-62 56h-43zM183 319H83c-17 0-31 14-31 31s14 31 31 31h100c17 0 32-14 32-31s-14-31-32-31zm359 0h-84c-17 0-31 14-31 31s14 31 31 31h84c17 0 31-14 31-31s-14-31-31-31zm375 0H804c-17 0-31 14-31 31s14 31 31 31h113c17 0 31-14 31-31s-14-31-31-31z" glyph-name="align-horizontally" horiz-adv-x="1000" unicode=""/><glyph d="M704 17H213c-18 0-32 14-32 31s14 31 32 31h491c42 0 56 9 56 62v43c0 53-14 62-56 62H213c-18 0-32 14-32 31s14 31 32 31h491c80 0 119-40 119-124v-43c0-83-39-124-119-124zM496 371H213c-18 0-32 14-32 31s14 31 32 31h283c42 0 56 9 56 62v43c0 53-14 62-56 62H213c-18 0-32 14-32 31s14 32 32 32h283c80 0 119-41 119-125v-43c0-83-39-124-119-124zM208-98c-17 0-31 15-31 32v833c0 17 14 31 31 31s32-14 32-31V-66c0-17-15-32-32-32z" glyph-name="align-left" horiz-adv-x="1000" unicode=""/><glyph d="M788 17H296c-80 0-119 41-119 124v43c0 84 39 124 119 124h492c17 0 31-14 31-31s-14-31-31-31H296c-42 0-56-9-56-62v-43c0-53 14-62 56-62h492c17 0 31-14 31-31s-14-31-31-31zm0 354H504c-80 0-119 41-119 124v43c0 84 39 125 119 125h284c17 0 31-15 31-32s-14-31-31-31H504c-42 0-56-9-56-62v-43c0-53 14-62 56-62h284c17 0 31-14 31-31s-14-31-31-31zm4-469c-17 0-32 15-32 32v833c0 17 15 31 32 31s31-14 31-31V-66c0-17-14-32-31-32z" glyph-name="align-right" horiz-adv-x="1000" unicode=""/><glyph d="M725 17H275c-80 0-119 41-119 124v43c0 84 39 124 119 124h450c80 0 119-40 119-124v-43c0-83-39-124-119-124zM275 246c-42 0-56-9-56-62v-43c0-53 14-62 56-62h450c42 0 56 9 56 62v43c0 53-14 62-56 62H275zm367 125H358c-80 0-118 41-118 124v43c0 84 38 125 118 125h284c80 0 118-41 118-125v-43c0-83-38-124-118-124zM358 600c-42 0-56-9-56-62v-43c0-53 14-62 56-62h284c42 0 56 9 56 62v43c0 53-14 62-56 62H358zM500-98c-17 0-31 14-31 31V33c0 17 14 32 31 32s31-15 31-32V-67c0-17-14-31-31-31zm0 375c-17 0-31 14-31 31v84c0 17 14 31 31 31s31-14 31-31v-84c0-17-14-31-31-31zm0 346c-17 0-31 15-31 32v112c0 17 14 31 31 31s31-14 31-31V655c0-18-14-32-31-32z" glyph-name="align-vertically" horiz-adv-x="1000" unicode=""/><glyph d="M500 152c-17 0-31 14-31 31s14 32 31 32c144 0 260 116 260 260S644 735 500 735 240 619 240 475c0-17-15-31-32-31s-31 14-31 31c0 178 145 323 323 323s323-145 323-323-145-323-323-323zm0-250c-17 0-31 14-31 31v250c0 17 14 32 31 32s31-15 31-32V-67c0-17-14-31-31-31zM625 27H375c-17 0-31 14-31 31s14 32 31 32h250c17 0 31-15 31-32s-14-31-31-31z" glyph-name="aquarius" horiz-adv-x="1000" unicode=""/><glyph d="M500 422c-42 0-85 7-125 22-17 6-25 24-19 40s24 24 40 19c67-25 141-25 208 0 16 5 34-3 40-19s-2-34-19-40c-40-15-82-22-125-22zM795-98c-22 0-45 6-67 19L524 34c-12 7-36 7-48 0L273-79c-41-23-83-25-115-6-33 19-51 57-51 104v587c0 106 86 192 192 192h402c106 0 192-86 192-192V19c0-47-18-85-50-104-15-9-31-13-48-13zM500 102c20 0 39-4 54-13L758-24c21-12 40-15 53-7 12 7 19 25 19 50v587c0 71-58 129-129 129H299c-71 0-129-58-129-129V19c0-25 7-43 19-50 13-7 32-5 54 7L446 89c15 9 34 13 54 13zM795-98c-22 0-45 6-67 19L524 34c-12 7-36 7-48 0L273-79c-41-23-83-25-115-6-33 19-51 57-51 104v587c0 106 86 192 192 192h402c106 0 192-86 192-192V19c0-47-18-85-50-104-15-9-31-13-48-13zM500 102c20 0 39-4 54-13L758-24c21-12 40-15 53-7 12 7 19 25 19 50v587c0 71-58 129-129 129H299c-71 0-129-58-129-129V19c0-25 7-43 19-50 13-7 32-5 54 7L446 89c15 9 34 13 54 13z" glyph-name="archive-1" horiz-adv-x="1000" unicode=""/><glyph d="M688-98H313C175-98 156-23 156 58v366c0 17 14 31 32 31 17 0 31-14 31-31V58c0-72 12-93 94-93h375c81 0 93 21 93 93v366c0 17 14 31 32 31 17 0 31-14 31-31V58c0-81-19-156-156-156zm104 500H208c-100 0-156 56-156 156v84c0 101 56 156 156 156h584c101 0 156-55 156-156v-84c0-100-55-156-156-156zM208 735c-65 0-93-27-93-93v-84c0-65 28-93 93-93h584c66 0 93 28 93 93v84c0 66-27 93-93 93H208zm368-500H424c-17 0-31 15-31 32s14 31 31 31h152c17 0 31-14 31-31s-14-32-31-32z" glyph-name="archive-2" horiz-adv-x="1000" unicode=""/><glyph d="M604 375H396c-17 0-31 14-31 31s14 32 31 32h208c17 0 31-15 31-32s-14-31-31-31zM500 268c-17 0-31 15-31 32v208c0 17 14 31 31 31s31-14 31-31V300c0-17-14-32-31-32zM795-98c-22 0-45 6-67 19L524 34c-12 7-36 7-48 0L273-79c-41-23-83-25-115-6-33 19-51 57-51 104v587c0 106 86 192 192 192h402c106 0 192-86 192-192V19c0-47-18-85-50-104-15-9-31-13-48-13zM500 102c20 0 39-4 54-13L758-24c21-12 40-15 53-7 12 7 19 25 19 50v587c0 71-58 129-129 129H299c-71 0-129-58-129-129V19c0-25 7-43 19-50 13-7 32-5 54 7L446 89c15 9 34 13 54 13z" glyph-name="archive-add" horiz-adv-x="1000" unicode=""/><glyph d="M667-98H333C181-98 94-10 94 142v416c0 152 87 240 239 240h334c152 0 239-88 239-240V142c0-152-87-240-239-240zM333 735c-119 0-177-57-177-177V142c0-119 58-177 177-177h334c119 0 177 58 177 177v416c0 120-58 177-177 177H333zm42-348c-7 0-14 1-21 4-19 9-31 27-31 48v328c0 17 14 31 31 31h292c17 0 31-14 31-31V439c0-21-12-39-31-47-19-9-41-5-56 9l-90 82-90-82c-10-9-22-14-35-14zm125 163c13 0 25-5 35-14l80-73v272H385V463l80 73c10 9 23 14 35 14zm229-315H552c-17 0-31 15-31 32s14 31 31 31h177c17 0 31-14 31-31s-14-32-31-32zm0-166H375c-17 0-31 14-31 31s14 31 31 31h354c17 0 31-14 31-31s-14-31-31-31z" glyph-name="archive-book" horiz-adv-x="1000" unicode=""/><glyph d="M604 375H396c-17 0-31 14-31 31s14 32 31 32h208c17 0 31-15 31-32s-14-31-31-31zM205-98c-17 0-33 4-48 13-32 18-50 56-50 103v588c0 106 86 192 192 192h402c106 0 192-86 192-192V19c0-47-18-85-50-104-33-19-75-17-116 6L524 34c-12 7-36 7-48 0L273-79c-23-12-46-19-68-19zm94 833c-71 0-129-58-129-129V19c0-25 7-43 19-50 13-8 32-5 54 7L446 89c31 17 77 17 108 0L758-24c21-12 40-15 53-7 12 7 19 26 19 50v587c0 71-58 129-129 129H299z" glyph-name="archive-minus" horiz-adv-x="1000" unicode=""/><glyph d="M83-98c-8 0-15 3-22 9-12 12-12 32 0 44l834 834c12 12 32 12 44 0s12-32 0-44L105-89c-6-6-14-9-22-9zm704 0c-24 0-49 7-74 21L442 93c-15 9-19 28-10 42 9 15 28 20 43 10L745-23c23-13 47-16 62-7 15 8 23 30 23 59v458c0 17 15 31 32 31s31-14 31-31V29c0-52-20-93-55-113-15-9-33-14-51-14zM138-13c-17 0-31 15-31 32v587c0 106 86 192 192 192h402c58 0 113-26 149-71 11-14 9-33-4-44s-33-9-44 4c-25 31-62 48-101 48H299c-71 0-129-58-129-129V19c0-17-15-32-32-32z" glyph-name="archive-slash" horiz-adv-x="1000" unicode=""/><glyph d="M205-98c-17 0-33 4-48 13-32 18-50 56-50 103v588c0 106 86 192 192 192h402c106 0 192-86 192-192V19c0-47-18-85-50-104-33-19-75-17-116 6L524 34c-12 7-36 7-48 0L273-79c-23-12-46-19-68-19zm94 833c-71 0-129-58-129-129V19c0-25 7-43 19-50 13-7 32-5 54 7L446 89c31 17 77 17 108 0L758-24c21-12 40-15 53-7 12 7 19 26 19 50v587c0 71-58 129-129 129H299zm163-437c-8 0-16 3-22 9l-62 63c-13 12-13 32 0 44 12 12 32 12 44 0l40-41 145 145c12 12 32 12 44 0s12-32 0-44L484 307c-6-6-14-9-22-9z" glyph-name="archive-tick" horiz-adv-x="1000" unicode=""/><glyph d="M625-98H375C149-98 52-1 52 225v250c0 226 97 323 323 323h250c226 0 323-97 323-323V225C948-1 851-98 625-98zM375 735c-192 0-260-68-260-260V225c0-192 68-260 260-260h250c192 0 260 68 260 260v250c0 192-68 260-260 260H375zm375-520c-17 0-31 14-31 31 0 29-24 52-52 52H333c-28 0-52-23-52-52 0-17-14-31-31-31s-31 14-31 31v281c0 63 51 115 114 115h334c63 0 114-52 114-115V246c0-17-14-31-31-31zM333 360h334c18 0 36-4 52-12v179c0 29-24 52-52 52H333c-28 0-52-23-52-52V348c16 8 34 12 52 12zm459-197h-42c-17 0-31 14-31 31s14 31 31 31h42c17 0 31-14 31-31s-14-31-31-31zm-542 0h-42c-17 0-31 14-31 31s14 31 31 31h42c17 0 31-14 31-31s-14-31-31-31zm500 72c-17 0-31 15-31 32v125c0 28-24 52-52 52H333c-28 0-52-24-52-52V267c0-17-14-32-31-32s-31 15-31 32v125c0 63 51 114 114 114h334c63 0 114-51 114-114V267c0-17-14-32-31-32zM500 58c-64 0-117 45-132 105H250c-17 0-31 14-31 31v52c0 63 51 114 114 114h334c63 0 114-51 114-114v-52c0-17-14-31-31-31H632c-14-60-68-105-132-105zM281 225h115c17 0 31-14 31-31 0-40 33-73 73-73s73 33 73 73c0 17 14 31 31 31h115v21c0 29-24 52-52 52H333c-28 0-52-23-52-52v-21z" glyph-name="archive" horiz-adv-x="1000" unicode=""/><glyph d="M588 116c-8 0-16 3-22 9-12 13-12 33 0 45l127 126c12 12 32 12 44 0s12-32 0-44L610 125c-6-5-14-9-22-9zm127 127H285c-17 0-31 14-31 31s14 31 31 31h430c17 0 31-14 31-31s-14-31-31-31zM285 395c-7 0-15 3-22 9-12 12-12 32 0 44l127 127c12 12 32 12 44 0s12-32 0-45L308 404c-7-6-15-9-23-9zm430 0H285c-17 0-31 14-31 31s14 31 31 31h430c17 0 31-14 31-31s-14-31-31-31zM500-98C253-98 52 103 52 350s201 448 448 448 448-201 448-448S747-98 500-98zm0 833c-212 0-385-172-385-385 0-212 173-385 385-385 213 0 385 173 385 385 0 213-172 385-385 385z" glyph-name="arrange-circle-2" horiz-adv-x="1000" unicode=""/><glyph d="M703 407c-8 0-16 3-23 9L554 543c-12 12-12 32 0 44s32 12 44 0l127-127c12-12 12-32 0-44-7-6-15-9-22-9zM576 104c-17 0-31 14-31 31v430c0 17 14 31 31 31s31-14 31-31V135c0-17-14-31-31-31zm-152 0c-8 0-16 3-22 9L275 240c-12 12-12 32 0 44 13 12 33 12 45 0l126-126c12-13 12-33 0-45-6-6-13-9-22-9zm0 0c-17 0-31 14-31 31v430c0 17 14 31 31 31s31-14 31-31V135c0-17-13-31-31-31zm76-202C253-98 52 103 52 350s201 448 448 448 448-201 448-448S747-98 500-98zm0 833c-212 0-385-172-385-385 0-212 173-385 385-385 213 0 385 173 385 385 0 213-172 385-385 385z" glyph-name="arrange-circle" horiz-adv-x="1000" unicode=""/><glyph d="M625-98H375C149-98 52-1 52 225v250c0 226 97 323 323 323h250c226 0 323-97 323-323V225C948-1 851-98 625-98zM375 735c-192 0-260-68-260-260V225c0-192 68-260 260-260h250c192 0 260 68 260 260v250c0 192-68 260-260 260H375zm49-631c-8 0-16 3-22 9L275 240c-12 12-12 32 0 44 13 12 33 12 45 0l126-126c12-13 12-33 0-45-6-6-13-9-22-9zm0 0c-17 0-31 14-31 31v430c0 17 14 31 31 31s31-14 31-31V135c0-17-13-31-31-31zm279 303c-8 0-16 3-23 9L554 543c-12 12-12 32 0 44s32 12 44 0l127-127c12-12 12-32 0-44-7-6-15-9-22-9zM576 104c-17 0-31 14-31 31v430c0 17 14 31 31 31s31-14 31-31V135c0-17-14-31-31-31z" glyph-name="arrange-square-2" horiz-adv-x="1000" unicode=""/><glyph d="M625-98H375C149-98 52-1 52 225v250c0 226 97 323 323 323h250c226 0 323-97 323-323V225C948-1 851-98 625-98zM375 735c-192 0-260-68-260-260V225c0-192 68-260 260-260h250c192 0 260 68 260 260v250c0 192-68 260-260 260H375zm213-619c-8 0-16 3-22 9-12 13-12 33 0 45l127 126c12 12 32 12 44 0s12-32 0-44L610 125c-6-5-14-9-22-9zm127 127H285c-17 0-31 14-31 31s14 31 31 31h430c17 0 31-14 31-31s-14-31-31-31zM285 395c-7 0-15 3-22 9-12 12-12 32 0 44l127 127c12 12 32 12 44 0s12-32 0-45L308 404c-7-6-15-9-23-9zm430 0H285c-17 0-31 14-31 31s14 31 31 31h430c17 0 31-14 31-31s-14-31-31-31z" glyph-name="arrange-square" horiz-adv-x="1000" unicode=""/><glyph d="M720 383c-8 0-16 3-22 10-12 12-12 32 0 44l133 133-133 133c-12 12-12 32 0 44s32 12 44 0l155-155c6-6 9-14 9-22 0-9-3-17-9-22L742 393c-6-6-14-10-22-10zm155 155H125c-17 0-31 15-31 32s14 31 31 31h750c17 0 31-14 31-31s-14-32-31-32zM280-56c-8 0-16 3-22 9L103 108c-6 6-9 14-9 22s3 16 9 22l155 155c12 12 32 12 44 0s12-32 0-44L169 130 302-3c12-12 12-32 0-44-6-6-14-9-22-9zM875 99H125c-17 0-31 14-31 31 0 18 14 32 31 32h750c17 0 31-14 31-32 0-17-14-31-31-31z" glyph-name="arrow-2" horiz-adv-x="1000" unicode=""/><glyph d="M435 539c-7 0-15 3-22 9L280 681 148 548c-13-12-33-12-45 0s-12 32 0 44l155 155c6 6 14 9 22 9 9 0 17-3 23-9l155-155c12-12 12-32 0-44-7-6-15-9-23-9zM280-56c-17 0-31 14-31 31v750c0 17 14 31 31 31 18 0 32-14 32-31V-25c0-17-14-31-32-31zm440 0c-8 0-16 3-22 9L543 108c-12 12-12 32 0 44s32 12 44 0L720 19l133 133c12 12 32 12 44 0s12-32 0-44L742-47c-6-6-14-9-22-9zm0 0c-17 0-32 14-32 31v750c0 17 15 31 32 31s31-14 31-31V-25c0-17-14-31-31-31z" glyph-name="arrow-3" horiz-adv-x="1000" unicode=""/><glyph d="M500 69c-59 0-113 37-152 105L236 367c-39 68-44 133-15 185 30 51 89 79 168 79h222c79 0 138-28 168-79 29-52 24-117-15-185L653 174c-40-68-94-105-153-105zM389 569c-56 0-96-17-114-49-18-31-12-74 15-122l111-193c28-47 63-74 99-74 35 0 70 27 98 74l111 193c28 48 33 92 15 123s-58 48-113 48H389z" glyph-name="arrow-bottom" horiz-adv-x="1000" unicode=""/><glyph d="M500-98C253-98 52 103 52 350s201 448 448 448 448-201 448-448S747-98 500-98zm0 833c-212 0-385-172-385-385 0-212 173-385 385-385 213 0 385 173 385 385 0 213-172 385-385 385zm0-510c-8 0-16 3-22 9L331 381c-12 12-12 32 0 44s32 12 44 0l125-125 125 125c12 12 32 12 44 0s12-32 0-44L522 234c-6-6-14-9-22-9z" glyph-name="arrow-circle-down" horiz-adv-x="1000" unicode=""/><glyph d="M500-98C253-98 52 103 52 350s201 448 448 448 448-201 448-448S747-98 500-98zm0 833c-212 0-385-172-385-385 0-212 173-385 385-385 213 0 385 173 385 385 0 213-172 385-385 385zm53-563c-8 0-16 3-23 9L383 328c-12 12-12 32 0 44l147 147c13 12 33 12 45 0s12-32 0-44L450 350l125-125c12-12 12-32 0-44-6-6-14-9-22-9z" glyph-name="arrow-circle-left" horiz-adv-x="1000" unicode=""/><glyph d="M500-98C253-98 52 103 52 350s201 448 448 448 448-201 448-448S747-98 500-98zm0 833c-212 0-385-172-385-385 0-212 173-385 385-385 213 0 385 173 385 385 0 213-172 385-385 385zm-52-563c-8 0-16 3-23 9-12 12-12 32 0 44l125 125-125 125c-12 12-12 32 0 44 13 12 33 12 45 0l147-147c12-12 12-32 0-44L470 181c-7-6-15-9-22-9z" glyph-name="arrow-circle-right" horiz-adv-x="1000" unicode=""/><glyph d="M500-98C253-98 52 103 52 350s201 448 448 448 448-201 448-448S747-98 500-98zm0 833c-212 0-385-172-385-385 0-212 173-385 385-385 213 0 385 173 385 385 0 213-172 385-385 385zm147-469c-8 0-16 3-22 9L500 400 375 275c-12-12-32-12-44 0-12 13-12 33 0 45l147 147c12 12 32 12 44 0l147-147c12-12 12-32 0-45-6-6-14-9-22-9z" glyph-name="arrow-circle-up" horiz-adv-x="1000" unicode=""/><glyph d="M500 150c-29 0-58 11-80 33L148 455c-12 12-12 32 0 44s32 12 44 0l272-271c20-20 52-20 72 0l272 271c12 12 32 12 44 0s12-32 0-44L580 183c-22-22-51-33-80-33z" glyph-name="arrow-down-1" horiz-adv-x="1000" unicode=""/><glyph d="M500-98C253-98 52 103 52 350s201 448 448 448 448-201 448-448S747-98 500-98zm0 833c-212 0-385-172-385-385 0-212 173-385 385-385 213 0 385 173 385 385 0 213-172 385-385 385zm0-520c-17 0-31 14-31 31v250c0 17 14 31 31 31s31-14 31-31V246c0-17-14-31-31-31zm0-42c-8 0-16 3-22 9L353 307c-12 12-12 32 0 44s32 12 44 0l103-103 103 103c12 12 32 12 44 0s12-32 0-44L522 182c-6-6-14-9-22-9z" glyph-name="arrow-down-2" horiz-adv-x="1000" unicode=""/><glyph d="M500-35c-8 0-16 2-22 9L225 227c-12 12-12 32 0 44s32 12 44 0L500 40l231 231c12 12 32 12 44 0s12-32 0-44L522-26c-6-7-14-9-22-9zm0 7c-17 0-31 14-31 31v701c0 17 14 31 31 31s31-14 31-31V3c0-17-14-31-31-31z" glyph-name="arrow-down" horiz-adv-x="1000" unicode=""/><glyph d="M629 52c-35 0-73 11-112 34L324 197c-68 40-105 94-105 153s37 113 105 153l193 111c68 39 133 44 185 15 51-30 80-89 80-168V239c0-79-29-138-80-168-22-13-47-19-73-19zm0 533c-24 0-51-8-81-25L355 448c-47-27-74-62-74-98s27-71 74-98l193-112c48-27 92-32 123-15 31 18 48 59 48 114v222c0 55-17 96-48 114-13 7-27 10-42 10z" glyph-name="arrow-left-1" horiz-adv-x="1000" unicode=""/><glyph d="M625-11c-8 0-16 3-22 9L331 270c-44 44-44 116 0 160l272 272c12 12 32 12 44 0s12-32 0-44L375 386c-20-20-20-52 0-72L647 42c12-12 12-32 0-44-6-6-14-9-22-9z" glyph-name="arrow-left-2" horiz-adv-x="1000" unicode=""/><glyph d="M500-98C253-98 52 103 52 350s201 448 448 448 448-201 448-448S747-98 500-98zm0 833c-212 0-385-172-385-385 0-212 173-385 385-385 213 0 385 173 385 385 0 213-172 385-385 385zm146-416H396c-17 0-31 14-31 31s14 31 31 31h250c17 0 31-14 31-31s-14-31-31-31zM479 194c-8 0-16 3-22 9L332 328c-12 12-12 32 0 44l125 125c12 12 32 12 44 0s12-32 0-44L398 350l103-103c12-12 12-32 0-44-6-6-14-9-22-9z" glyph-name="arrow-left-3" horiz-adv-x="1000" unicode=""/><glyph d="M399 66c-8 0-16 3-22 9L124 328c-12 12-12 32 0 44l253 253c12 12 32 12 44 0s12-32 0-44L190 350l231-231c12-12 12-32 0-44-6-6-14-9-22-9zm455 253H153c-17 0-31 14-31 31s14 31 31 31h701c17 0 31-14 31-31s-14-31-31-31z" glyph-name="arrow-left" horiz-adv-x="1000" unicode=""/><glyph d="M601 66c-8 0-16 3-22 9-12 12-12 32 0 44l231 231-231 231c-12 12-12 32 0 44s32 12 44 0l253-253c12-12 12-32 0-44L623 75c-6-6-14-9-22-9zm246 253H146c-17 0-31 14-31 31s14 31 31 31h701c17 0 31-14 31-31s-14-31-31-31z" glyph-name="arrow-right-1" horiz-adv-x="1000" unicode=""/><glyph d="M500-98C253-98 52 103 52 350s201 448 448 448 448-201 448-448S747-98 500-98zm0 833c-212 0-385-172-385-385 0-212 173-385 385-385 213 0 385 173 385 385 0 213-172 385-385 385zm104-416H354c-17 0-31 14-31 31s14 31 31 31h250c17 0 31-14 31-31s-14-31-31-31zm-83-125c-8 0-16 3-22 9-12 12-12 32 0 44l103 103-103 103c-12 12-12 32 0 44s32 12 44 0l125-125c12-12 12-32 0-44L543 203c-6-6-14-9-22-9z" glyph-name="arrow-right-2" horiz-adv-x="1000" unicode=""/><glyph d="M371-11c-8 0-16 3-22 9-12 12-12 32 0 44l272 272c20 20 20 52 0 72L349 658c-12 12-12 32 0 44s32 12 44 0l272-272c21-21 33-50 33-80s-11-59-33-80L393-2c-6-6-14-9-22-9z" glyph-name="arrow-right-3" horiz-adv-x="1000" unicode=""/><glyph d="M371 52c-26 0-51 6-73 19-51 29-79 89-79 167v223c0 79 28 138 79 168 52 29 117 24 185-15l193-111c68-40 106-94 106-153s-38-113-106-152L483 86c-39-23-77-34-112-34zm0 533c-16 0-30-3-42-10-31-18-48-58-48-114V239c0-55 17-96 49-114 31-17 74-12 122 15l193 112c48 27 74 62 74 98s-26 71-74 98L452 560c-29 17-57 25-81 25z" glyph-name="arrow-right-4" horiz-adv-x="1000" unicode=""/><glyph d="M625-98H375C149-98 52-1 52 225v250c0 226 97 323 323 323h250c226 0 323-97 323-323V225C948-1 851-98 625-98zM375 735c-192 0-260-68-260-260V225c0-192 68-260 260-260h250c192 0 260 68 260 260v250c0 192-68 260-260 260H375zm73-563c-8 0-16 3-23 9-12 12-12 32 0 44l125 125-125 125c-12 12-12 32 0 44 13 12 33 12 45 0l147-147c12-12 12-32 0-44L470 181c-7-6-15-9-22-9z" glyph-name="arrow-right" horiz-adv-x="1000" unicode=""/><glyph d="M625-98H375C149-98 52-1 52 225v250c0 226 97 323 323 323h250c226 0 323-97 323-323V225C948-1 851-98 625-98zM375 735c-192 0-260-68-260-260V225c0-192 68-260 260-260h250c192 0 260 68 260 260v250c0 192-68 260-260 260H375zm125-506c-8 0-16 3-22 9L331 385c-12 12-12 32 0 44s32 12 44 0l125-125 125 125c12 12 32 12 44 0s12-32 0-44L522 238c-6-6-14-9-22-9z" glyph-name="arrow-square-down" horiz-adv-x="1000" unicode=""/><glyph d="M625-98H375C149-98 52-1 52 225v250c0 226 97 323 323 323h250c226 0 323-97 323-323V225C948-1 851-98 625-98zM375 735c-192 0-260-68-260-260V225c0-192 68-260 260-260h250c192 0 260 68 260 260v250c0 192-68 260-260 260H375zm178-563c-8 0-16 3-23 9L383 328c-12 12-12 32 0 44l147 147c13 12 33 12 45 0s12-32 0-44L450 350l125-125c12-12 12-32 0-44-6-6-14-9-22-9z" glyph-name="arrow-square-left" horiz-adv-x="1000" unicode=""/><glyph d="M625-98H375C149-98 52-1 52 225v250c0 226 97 323 323 323h250c226 0 323-97 323-323V225C948-1 851-98 625-98zM375 735c-192 0-260-68-260-260V225c0-192 68-260 260-260h250c192 0 260 68 260 260v250c0 192-68 260-260 260H375zm272-477c-8 0-16 3-22 9L500 392 375 267c-12-12-32-12-44 0s-12 32 0 44l147 147c12 12 32 12 44 0l147-147c12-12 12-32 0-44-6-6-14-9-22-9z" glyph-name="arrow-square-up" horiz-adv-x="1000" unicode=""/><glyph d="M506 191c-17 0-31 14-31 31v82c0 122 99 221 221 221h82c17 0 31-14 31-31s-14-31-31-31h-82c-87 0-159-72-159-159v-82c0-17-14-31-31-31zm0-91c-17 0-31 14-31 31v172c0 88-72 159-159 159h-82c-17 0-31 14-31 31s14 32 31 32h82c122 0 221-100 221-222V131c0-17-14-31-31-31zM298 388c-8 0-16 2-23 9l-75 75c-12 12-12 32 0 44l75 75c13 12 33 12 45 0s12-32 0-44l-53-53 53-53c12-12 12-32 0-44-7-7-15-9-22-9zm405 0c-8 0-16 2-23 9-12 12-12 32 0 44l53 53-53 53c-12 12-12 32 0 44 13 12 33 12 45 0l75-75c12-12 12-32 0-44l-75-75c-6-7-15-9-22-9zM625-98H375C149-98 52-1 52 225v250c0 226 97 323 323 323h250c226 0 323-97 323-323V225C948-1 851-98 625-98zM375 735c-192 0-260-68-260-260V225c0-192 68-260 260-260h250c192 0 260 68 260 260v250c0 192-68 260-260 260H375z" glyph-name="arrow-square" horiz-adv-x="1000" unicode=""/><glyph d="M645-15c-7 0-15 3-22 9-12 12-12 32 0 44l209 209c12 12 32 12 44 0s12-32 0-44L668-6c-7-6-15-9-23-9zm209 209H146c-17 0-31 14-31 31 0 18 14 32 31 32h708c17 0 31-14 31-32 0-17-14-31-31-31zM146 443c-8 0-16 3-22 10-12 12-12 32 0 44l209 208c12 13 32 13 44 0 12-12 12-32 0-44L168 453c-6-6-14-10-22-10zm708 0H146c-17 0-31 15-31 32s14 31 31 31h708c17 0 31-14 31-31s-14-32-31-32z" glyph-name="arrow-swap-horizontal" horiz-adv-x="1000" unicode=""/><glyph d="M375-35c-7 0-15 2-22 9L145 183c-12 12-12 32 0 44s32 12 44 0L398 18c12-12 12-32 0-44-7-6-15-9-23-9zm0 0c-17 0-31 14-31 31v708c0 17 14 31 31 31 18 0 32-14 32-31V-4c0-17-14-31-32-31zm459 499c-8 0-16 3-22 9L603 682c-12 12-12 32 0 44s32 12 44 0l209-208c12-13 12-33 0-45-6-6-14-9-22-9zM625-35c-17 0-32 14-32 31v708c0 17 15 31 32 31s31-14 31-31V-4c0-17-14-31-31-31z" glyph-name="arrow-swap" horiz-adv-x="1000" unicode=""/><glyph d="M500-98C253-98 52 103 52 350s201 448 448 448 448-201 448-448S747-98 500-98zm0 833c-212 0-385-172-385-385 0-212 173-385 385-385 213 0 385 173 385 385 0 213-172 385-385 385zm0-562c-17 0-31 14-31 31v250c0 17 14 31 31 31s31-14 31-31V204c0-17-14-31-31-31zm125 167c-8 0-16 3-22 9L500 452 397 349c-12-12-32-12-44 0s-12 32 0 44l125 125c12 12 32 12 44 0l125-125c12-12 12-32 0-44-6-6-14-9-22-9z" glyph-name="arrow-up-1" horiz-adv-x="1000" unicode=""/><glyph d="M830 192c-8 0-16 3-22 9L536 473c-20 20-52 20-72 0L192 201c-12-12-32-12-44 0s-12 32 0 44l272 272c44 44 116 44 160 0l272-272c12-12 12-32 0-44-6-6-14-9-22-9z" glyph-name="arrow-up-2" horiz-adv-x="1000" unicode=""/><glyph d="M753 420c-8 0-16 3-22 9L500 660 269 429c-12-12-32-12-44 0s-12 32 0 44l253 253c12 12 32 12 44 0l253-253c12-12 12-32 0-44-6-6-14-9-22-9zM500-35c-17 0-31 14-31 31v701c0 17 14 31 31 31s31-14 31-31V-4c0-17-14-31-31-31z" glyph-name="arrow-up-3" horiz-adv-x="1000" unicode=""/><glyph d="M611 69H389c-79 0-138 28-168 79-29 52-24 117 15 185l112 193c39 68 93 105 152 105s113-37 153-105l111-193c39-68 44-134 15-185-30-51-89-79-168-79zM500 569c-36 0-71-26-98-74L290 302c-27-48-32-92-15-123 18-31 59-48 114-48h222c55 0 96 17 114 48s12 75-15 123L598 495c-27 48-62 74-98 74z" glyph-name="arrow-up" horiz-adv-x="1000" unicode=""/><glyph d="M500-98c-17 0-31 14-31 31v84c0 17 14 31 31 31s31-14 31-31v-84c0-17-14-31-31-31zm0 167c-17 0-31 14-31 31v83c0 17 14 32 31 32s31-15 31-32v-83c0-17-14-31-31-31zm0 166c-17 0-31 15-31 32v125c0 178 145 323 323 323h125c17 0 31-15 31-32s-14-31-31-31H792c-144 0-261-117-261-260V267c0-17-14-32-31-32zm0 0c-17 0-31 15-31 32v125c0 143-117 260-261 260H83c-17 0-31 14-31 31s14 32 31 32h125c178 0 323-145 323-323V267c0-17-14-32-31-32zM167 569c-8 0-16 3-22 9l-84 83c-12 12-12 32 0 44l84 84c12 12 32 12 44 0s12-32 0-44l-61-62 61-61c12-12 12-32 0-44-6-6-14-9-22-9zm666 0c-8 0-15 3-22 9-12 12-12 32 0 44l62 61-62 62c-12 12-12 32 0 44s32 12 44 0l84-84c12-12 12-32 0-44l-84-83c-6-6-14-9-22-9z" glyph-name="arrow" horiz-adv-x="1000" unicode=""/><glyph d="M508 126c-29 0-58 11-80 33s-34 51-34 81 12 60 34 81l58 59c12 12 32 12 44 0 13-12 13-32 0-45l-58-58c-10-10-16-23-16-37s6-27 16-37c20-20 53-20 73 0l93 93c53 53 53 139 0 192-53 52-139 52-192 0L345 387c-21-22-32-49-32-79s11-58 32-79c13-12 13-32 0-44-12-12-32-12-44 0-33 33-51 77-51 123 0 47 18 91 51 124l101 101c77 77 203 77 280 0 77-78 77-203 0-280l-92-93c-23-23-52-34-82-34zm-8-224C253-98 52 103 52 350s201 448 448 448 448-201 448-448S747-98 500-98zm0 833c-212 0-385-172-385-385 0-212 173-385 385-385 213 0 385 173 385 385 0 213-172 385-385 385z" glyph-name="attach-circle" horiz-adv-x="1000" unicode=""/><glyph d="M508 126c-29 0-58 11-80 33s-34 51-34 81 12 60 34 81l58 59c12 12 32 12 44 0 13-12 13-32 0-45l-58-58c-10-10-16-23-16-37s6-27 16-37c20-20 53-20 73 0l93 93c53 53 53 139 0 192-53 52-139 52-192 0L345 387c-21-22-32-49-32-79s11-58 32-79c13-12 13-32 0-44-12-12-32-12-44 0-33 33-51 77-51 123 0 47 18 91 51 124l101 101c77 77 203 77 280 0 77-78 77-203 0-280l-92-93c-23-23-52-34-82-34zM625-98H375C149-98 52-1 52 225v250c0 226 97 323 323 323h250c226 0 323-97 323-323V225C948-1 851-98 625-98zM375 735c-192 0-260-68-260-260V225c0-192 68-260 260-260h250c192 0 260 68 260 260v250c0 192-68 260-260 260H375z" glyph-name="attach-square" horiz-adv-x="1000" unicode=""/><glyph d="M625-98H375C149-98 52-1 52 225v250c0 226 97 323 323 323h250c226 0 323-97 323-323V225C948-1 851-98 625-98zM375 735c-192 0-260-68-260-260V225c0-192 68-260 260-260h250c192 0 260 68 260 260v250c0 192-68 260-260 260H375zm26-637c-66 0-120 54-120 120 0 65 54 119 120 119s119-54 119-119c0-66-53-120-119-120zm0 176c-31 0-57-25-57-57 0-31 25-57 57-57 31 0 57 25 57 57s-26 57-57 57zm88-88c-17 0-31 14-31 32v308c0 17 14 32 31 32s31-15 31-32V218c0-18-14-32-31-32zm158 188c-9 0-18 1-27 4l-98 33c-37 12-64 50-64 89v26c0 26 11 49 30 63s44 17 69 9l98-33c36-12 64-50 64-89v-26c0-26-11-49-30-63-12-9-27-13-42-13zM530 540c-2 0-5-1-6-2-2-1-4-6-4-12v-26c0-11 11-26 22-30l97-32c6-2 11-2 13 0 3 2 4 6 4 12v26c0 12-11 26-21 30l-98 32c-2 1-5 2-7 2z" glyph-name="audio-square" horiz-adv-x="1000" unicode=""/><glyph d="M500-98c-26 0-52 9-72 27l-66 56c-7 6-23 12-32 12h-73c-62 0-112 50-112 111v72c0 8-5 25-11 31l-56 67c-35 40-35 104 0 145l56 66c6 6 11 23 11 32v71c0 61 50 111 112 111h72c9 0 25 7 32 12l66 57c41 34 105 34 146 0l65-57c7-5 24-11 33-11h71c61 0 111-50 111-112v-71c0-8 7-25 12-32l57-66c35-41 34-105 0-145l-57-66c-5-7-11-23-11-32v-71C854 48 804-3 742-3h-71c-8 0-25-6-32-12l-66-56c-20-18-47-27-73-27zM257 641c-27 0-49-22-49-49v-71c0-24-11-54-26-72l-57-67c-14-17-14-47 0-64l56-66c15-17 27-48 27-72v-71c0-27 22-49 49-49h72c24 0 54-12 73-27l66-57c17-14 47-14 64 0l66 57c19 15 49 26 72 26h71c27 0 49 22 49 49v71c0 24 12 54 27 73l57 66c14 17 14 47 0 64l-56 66c-16 19-27 49-27 72v72c0 27-22 49-49 49h-71c-24 0-55 11-73 27l-66 56c-17 15-47 15-64 0l-66-56c-19-16-49-27-73-27h-72zm360-468L500 437 383 173l-58 26 146 328h58l146-328-58-26zm-44 91H427c-17 0-31 14-31 31 0 18 14 32 31 32h146c17 0 31-14 31-32 0-17-14-31-31-31z" glyph-name="autobrightness" horiz-adv-x="1000" unicode=""/><glyph d="M500-98c-25 0-50 6-70 17L233 33c-81 55-87 65-87 151v207c0 86 6 96 86 150l199 115c39 23 99 23 139 0l197-114c81-55 87-65 87-151V184c0-86-6-96-86-150L569-81c-19-12-44-17-69-17zm0 708c-14 0-28-2-38-8L265 488c-56-38-56-38-56-97V184c0-59 0-59 58-98L462-27c20-11 56-11 76 0L735 87c56 38 56 38 56 97v207c0 59 0 59-58 98L538 602c-10 6-24 8-38 8zm229-109c-17 0-31 14-31 31v110c0 66-28 93-94 93H396c-66 0-94-27-94-93V535c0-17-14-31-31-31s-31 14-31 31v107c0 101 55 156 156 156h208c101 0 156-55 156-156V532c0-17-14-31-31-31zM568 115c-9 0-18 2-27 6l-41 16-41-17c-22-8-44-6-61 6s-25 33-24 57l2 43-28 34c-15 19-20 40-13 60 6 20 23 35 46 41l43 11 24 37c25 40 80 40 105 0l24-37 42-11c23-6 40-21 46-41 7-19 2-41-13-60l-28-33 2-44c2-24-7-44-24-57-10-7-22-11-34-11zM397 300l28-34c9-11 15-29 14-43l-3-44 41 16c14 5 32 5 46 0l41-16-3 44c-1 14 5 32 14 43l28 34-42 11c-14 4-29 14-37 27l-24 36-23-36c-8-13-23-24-37-28l-43-10z" glyph-name="award" horiz-adv-x="1000" unicode=""/><glyph d="M625-98H375C149-98 52-1 52 225v250c0 226 97 323 323 323h250c226 0 323-97 323-323V225C948-1 851-98 625-98zM375 735c-192 0-260-68-260-260V225c0-192 68-260 260-260h250c192 0 260 68 260 260v250c0 192-68 260-260 260H375zm205-557H375c-17 0-31 14-31 31s14 31 31 31h205c53 0 97 44 97 98 0 53-43 97-97 97H298c-17 0-31 14-31 31s14 31 31 31h282c88 0 160-72 160-159 0-88-72-160-160-160zM357 370c-8 0-16 3-22 9l-65 66c-12 12-12 32 0 44l65 65c12 12 32 12 44 0s12-32 0-44l-43-43 43-44c12-12 12-32 0-44-6-6-14-9-22-9z" glyph-name="back-square" horiz-adv-x="1000" unicode=""/><glyph d="M516 145h-96c-17 0-31 14-31 31s14 32 31 32h96c18 0 32 14 32 32s-14 33-32 33h-96c-10 0-19 5-25 12-6 8-7 19-4 29l32 95c4 13 16 21 29 21h128c17 0 31-14 31-31s-14-31-31-31H475l-11-33h52c52 0 95-42 95-95 0-52-43-95-95-95zm-98 488c-8 0-14 2-20 7-13 10-15 30-5 43l82 103c11 14 31 16 44 5 14-11 16-30 5-43l-82-103c-6-8-15-12-24-12zm82-731C279-98 98 82 98 304c0 86 28 169 82 240 10 14 30 16 43 6 14-10 17-30 7-44-45-60-69-130-69-202 0-187 152-339 339-339s339 152 339 339-152 339-339 339c-24 0-49-3-75-9-17-4-34 6-38 23s7 34 23 38c32 7 61 10 90 10 221 0 402-180 402-401C902 82 721-98 500-98z" glyph-name="backward-5-seconds" horiz-adv-x="1000" unicode=""/><glyph d="M398 155c-18 0-32 15-32 32v141l-8-9c-11-13-31-14-44-2-13 11-14 31-2 44l62 69c9 10 23 13 35 9 12-5 20-16 20-29V187c0-18-14-32-31-32zm20 478c-8 0-14 2-20 7-13 10-15 30-5 43l82 103c11 14 31 16 44 5 14-10 16-30 5-43l-82-103c-6-8-15-12-24-12zm82-731C279-98 98 82 98 304c0 86 28 169 82 240 10 14 30 16 43 6 14-10 17-30 7-44-45-60-69-130-69-202 0-187 152-339 339-339s339 152 339 339-152 339-339 339c-24 0-49-3-75-9-17-4-34 6-38 23s7 34 23 38c32 7 61 10 90 10 221 0 402-180 402-401C902 82 721-98 500-98zm83 253c-63 0-114 52-114 115v56c0 64 51 115 114 115 64 0 115-51 115-115v-56c0-63-51-115-115-115zm0 223c-28 0-52-23-52-52v-56c0-29 24-52 52-52 29 0 52 23 52 52v56c0 29-23 52-52 52z" glyph-name="backward-10-seconds" horiz-adv-x="1000" unicode=""/><glyph d="M601 145h-95c-17 0-31 14-31 31s14 32 31 32h95c18 0 33 14 33 32s-15 33-33 33h-95c-10 0-20 5-26 12-5 8-7 19-4 29l32 95c4 13 16 21 30 21h127c17 0 31-14 31-31s-14-31-31-31H560l-11-33h52c53 0 95-42 95-95 0-52-43-95-95-95zm-203 0c-18 0-32 14-32 31v142l-8-10c-11-13-31-13-44-2-13 12-14 31-2 44l62 70c9 9 23 13 35 8s20-16 20-29V176c0-17-14-31-31-31zm20 488c-8 0-14 2-20 7-13 10-15 30-5 43l82 103c11 14 31 16 44 5 14-10 16-30 5-43l-82-103c-6-8-15-12-24-12zm82-731C279-98 98 82 98 304c0 86 28 169 82 240 10 14 30 16 43 6 14-10 17-30 7-44-45-60-69-130-69-202 0-187 152-339 339-339s339 152 339 339-152 339-339 339c-24 0-49-3-75-9-17-4-34 6-38 23s7 34 23 38c32 7 61 10 90 10 221 0 402-180 402-401C902 82 721-98 500-98z" glyph-name="backward-15-seconds" horiz-adv-x="1000" unicode=""/><glyph d="M785 360H673c-111 0-163 52-163 163v112c0 111 52 163 163 163h112c111 0 163-52 163-163V523c0-111-52-163-163-163zM673 735c-77 0-100-23-100-100V523c0-77 23-100 100-100h112c77 0 100 23 100 100v112c0 77-23 100-100 100H673zM327-98H215C104-98 52-46 52 65v112c0 111 52 163 163 163h112c111 0 163-52 163-163V65c0-111-52-163-163-163zM215 277c-77 0-100-23-100-100V65c0-77 23-100 100-100h112c77 0 100 23 100 100v112c0 77-23 100-100 100H215zM568 95H458c-17 0-31 14-31 31v51c0 77-23 100-100 100h-51c-17 0-31 14-31 31v110c0 130 58 187 188 187h109c17 0 31-14 31-31v-51c0-77 23-100 100-100h51c17 0 32-14 32-31V283c0-130-58-188-188-188zm-78 62h78c95 0 125 31 125 126v77h-20c-111 0-162 52-162 163v20h-78c-95 0-126-30-126-125v-78h20c111 0 163-52 163-163v-20z" glyph-name="backward-item" horiz-adv-x="1000" unicode=""/><glyph d="M835 85c-19 0-38 5-56 15L515 253c-12 7-22 15-29 25-4 5-7 12-7 19v107c0 7 3 14 7 19 8 10 17 18 29 25l265 152c35 21 77 21 112 0 36-20 56-56 56-97V198c0-41-20-77-56-98-18-10-37-15-57-15zM541 310c2-1 4-2 5-3l264-152c16-10 35-10 50 0 16 9 25 25 25 43v305c0 18-9 34-25 43s-34 9-50 0L546 394c-2-1-3-2-5-4v-80zM429 85c-19 0-39 5-56 15L108 253c-35 20-56 57-56 97 0 41 21 78 56 98l265 152c35 21 77 21 112 0 35-20 56-56 56-97V198c0-41-21-77-56-98-17-10-37-15-56-15zm0 468c-9 0-17-3-25-7L140 393c-16-9-25-25-25-43s9-34 25-43l264-153c16-9 34-9 50 0s25 25 25 44v305c0 17-9 34-25 43-8 4-16 7-25 7z" glyph-name="backward" horiz-adv-x="1000" unicode=""/><glyph d="M688 490c-18 0-32 15-32 32v57c0 44-18 86-51 116s-75 44-120 40c-75-7-141-84-141-164v-41c0-17-14-31-31-31-18 0-32 14-32 31v41c0 112 91 216 198 226 62 6 122-14 168-56 46-41 72-100 72-162v-57c0-17-14-32-31-32zM625-98H375C183-98 147-8 138 79l-32 249c-4 45-6 110 38 158 37 42 99 62 189 62h334c90 0 152-20 189-62 44-48 42-113 38-157L863 79C853-8 818-98 625-98zM333 485c-70 0-118-13-143-41-20-22-27-57-22-109l32-249c7-67 25-122 175-122h250c150 0 168 55 175 121l32 250c5 51-2 86-22 109-25 28-73 41-143 41H333zm310-183c-24 0-43 19-43 42s19 41 42 41 42-18 42-41-19-42-41-42zm-292 0c-23 0-42 19-42 42s19 41 41 41c23 0 42-18 42-41s-18-42-41-42z" glyph-name="bag-2" horiz-adv-x="1000" unicode=""/><glyph d="M558 95c-8 0-16 3-22 10L421 220c-12 12-12 32 0 44s32 12 44 0l115-115c12-12 12-32 0-44-6-7-14-10-22-10zm-116-1c-8 0-16 3-22 9-12 12-12 32 0 45l115 115c12 12 32 12 44 0 12-13 12-33 0-45L464 103c-6-6-14-9-22-9zM216 584c-8 0-16 4-22 9-12 12-12 32 0 45l152 151c12 12 32 12 44 0s12-32 0-44L238 593c-6-5-14-9-22-9zm568 0c-8 0-16 3-22 9L610 745c-12 12-12 32 0 44 13 12 33 12 45 0l151-151c12-13 12-33 0-45-6-5-14-9-22-9zm58-176H167c-29 0-63 0-87 24-19 19-28 48-28 91 0 115 84 115 124 115h648c40 0 124 0 124-115 0-43-9-72-28-91-22-22-51-24-78-24zm-666 63h658c19-1 36-1 42 5 3 3 9 13 9 47 0 47-12 52-61 52H176c-50 0-61-5-61-52 0-34 6-44 9-47 6-5 24-5 42-5h10zM620-98H369C220-98 187-9 174 68l-59 360c-3 17 9 33 26 36s33-9 36-26l58-360C248 5 273-35 369-35h251C728-35 740 2 753 75l70 364c4 17 20 29 37 25s28-20 25-37L815 63C798-22 771-98 620-98z" glyph-name="bag-cross-1" horiz-adv-x="1000" unicode=""/><glyph d="M500 27c-109 0-198 89-198 198s89 198 198 198 198-89 198-198S609 27 500 27zm0 333c-75 0-135-60-135-135S425 90 500 90s135 60 135 135-60 135-135 135zm45-212c-8 0-16 2-22 9l-88 88c-12 12-12 32 0 44s32 12 44 0l88-88c12-12 12-32 0-44-7-7-14-9-22-9zm-90-2c-7 0-15 3-22 9-12 13-12 33 0 45l88 88c12 12 32 12 44 0 13-13 13-33 0-45l-87-88c-7-5-15-9-23-9zM625-98H375C183-98 147-8 138 79l-32 249c-4 45-6 110 38 158 37 42 99 62 189 62h334c90 0 152-20 189-62 44-48 42-113 38-157L863 79C853-8 818-98 625-98zM333 485c-70 0-118-13-143-41-20-22-27-57-22-109l32-249c7-67 25-122 175-122h250c150 0 168 55 175 121l32 250c5 51-2 86-22 109-25 28-73 41-143 41H333zm355 5c-18 0-32 15-32 32v57c0 44-18 86-51 116s-76 44-120 40c-75-7-141-84-141-164v-41c0-17-14-31-31-31-18 0-32 14-32 31v41c0 112 91 216 198 226 62 6 122-14 168-56 46-41 72-100 72-162v-57c0-17-14-32-31-32z" glyph-name="bag-cross" horiz-adv-x="1000" unicode=""/><glyph d="M500 79c-97 0-177 80-177 177 0 17 14 32 31 32s31-15 31-32c0-63 52-114 115-114s115 51 115 114c0 17 14 32 31 32s31-15 31-32c0-97-79-177-177-177zM216 584c-8 0-16 4-22 9-12 12-12 32 0 45l152 151c12 12 32 12 44 0s12-32 0-44L238 593c-6-5-14-9-22-9zm568 0c-8 0-16 3-22 9L610 745c-12 12-12 32 0 44 13 12 33 12 45 0l151-151c12-13 12-33 0-45-6-5-14-9-22-9zm58-176H167c-29 0-63 0-87 24-19 19-28 48-28 91 0 115 84 115 124 115h648c40 0 124 0 124-115 0-43-9-72-28-91-22-22-51-24-78-24zm-666 63h658c19-1 36-1 42 5 3 3 9 13 9 47 0 47-12 52-61 52H176c-50 0-61-5-61-52 0-34 6-44 9-47 6-5 24-5 42-5h10zM620-98H369C220-98 187-9 174 68l-59 360c-3 17 9 33 26 36s33-9 36-26l58-360C248 5 273-35 369-35h251C728-35 740 2 753 75l70 364c4 17 20 29 37 25s28-20 25-37L815 63C798-22 771-98 620-98z" glyph-name="bag-happy" horiz-adv-x="1000" unicode=""/><glyph d="M500 27c-109 0-198 89-198 198s89 198 198 198 198-89 198-198S609 27 500 27zm0 333c-75 0-135-60-135-135S425 90 500 90s135 60 135 135-60 135-135 135zm-23-199c-14 0-27 5-37 15l-27 27c-12 12-12 32 0 45 12 12 32 12 44 0l20-20 67 61c13 12 33 11 44-1 12-13 11-33-1-45l-74-68c-11-10-24-14-36-14zM625-98H375C183-98 147-8 138 79l-32 249c-4 45-6 110 38 158 37 42 99 62 189 62h334c90 0 152-20 189-62 44-48 42-113 38-157L863 79C853-8 818-98 625-98zM333 485c-70 0-118-13-143-41-20-22-27-57-22-109l32-249c7-67 25-122 175-122h250c150 0 168 55 175 121l32 250c5 51-2 86-22 109-25 28-73 41-143 41H333zm355 5c-18 0-32 15-32 32v57c0 44-18 86-51 116s-76 44-120 40c-75-7-141-84-141-164v-41c0-17-14-31-31-31-18 0-32 14-32 31v41c0 112 91 216 198 226 62 6 122-14 168-56 46-41 72-100 72-162v-57c0-17-14-32-31-32z" glyph-name="bag-tick-2" horiz-adv-x="1000" unicode=""/><glyph d="M463 90c-8 0-15 3-22 9l-62 62c-12 12-12 32 0 44 12 13 32 13 44 0l41-41 114 105c12 11 32 11 44-2 11-12 11-32-2-44L485 98c-6-5-14-8-22-8zM216 584c-8 0-16 4-22 9-12 12-12 32 0 45l152 151c12 12 32 12 44 0s12-32 0-44L238 593c-6-5-14-9-22-9zm568 0c-8 0-16 3-22 9L610 745c-12 12-12 32 0 44 13 12 33 12 45 0l151-151c12-13 12-33 0-45-6-5-14-9-22-9zm58-176H167c-29 0-63 0-87 24-19 19-28 48-28 91 0 115 84 115 124 115h648c40 0 124 0 124-115 0-43-9-72-28-91-22-22-51-24-78-24zm-666 63h658c19-1 36-1 42 5 3 3 9 13 9 47 0 47-12 52-61 52H176c-50 0-61-5-61-52 0-34 6-44 9-47 6-5 24-5 42-5h10zM620-98H369C220-98 187-9 174 68l-59 360c-3 17 9 33 26 36s33-9 36-26l58-360C248 5 273-35 369-35h251C728-35 740 2 753 75l70 364c4 17 20 29 37 25s28-20 25-37L815 63C798-22 771-98 620-98z" glyph-name="bag-tick" horiz-adv-x="1000" unicode=""/><glyph d="M500 27c-109 0-198 89-198 198s89 198 198 198 198-89 198-198S609 27 500 27zm0 333c-75 0-135-60-135-135S425 90 500 90s135 60 135 135-60 135-135 135zm-42-208c-10 0-20 6-26 15-9 15-4 34 11 43l31 19c4 2 5 6 5 9v39c0 17 14 31 31 31 18 0 32-14 32-31v-39c0-25-14-49-36-62l-32-19c-4-4-10-5-16-5zM625-98H375C183-98 147-8 138 79l-32 249c-4 45-6 110 38 158 37 42 99 62 189 62h334c90 0 152-20 189-62 44-48 42-113 38-157L863 79C853-8 818-98 625-98zM333 485c-70 0-118-13-143-41-20-22-27-57-22-109l32-249c7-67 25-122 175-122h250c150 0 168 55 175 121l32 250c5 51-2 86-22 109-25 28-73 41-143 41H333zm355 5c-18 0-32 15-32 32v57c0 44-18 86-51 116s-76 44-120 40c-75-7-141-84-141-164v-41c0-17-14-31-31-31-18 0-32 14-32 31v41c0 112 91 216 198 226 62 6 122-14 168-56 46-41 72-100 72-162v-57c0-17-14-32-31-32z" glyph-name="bag-timer" horiz-adv-x="1000" unicode=""/><glyph d="M216 584c-8 0-16 4-22 9-12 12-12 32 0 45l152 151c12 12 32 12 44 0s12-32 0-44L238 593c-6-5-14-9-22-9zm568 0c-8 0-16 3-22 9L610 745c-12 12-12 32 0 44 13 12 33 12 45 0l151-151c12-13 12-33 0-45-6-5-14-9-22-9zm58-176H167c-29 0-63 0-87 24-19 19-28 48-28 91 0 115 84 115 124 115h648c40 0 124 0 124-115 0-43-9-72-28-91-22-22-51-24-78-24zm-666 63h658c19-1 36-1 42 5 3 3 9 13 9 47 0 47-12 52-61 52H176c-50 0-61-5-61-52 0-34 6-44 9-47 6-5 24-5 42-5h10zM407 88c-17 0-32 14-32 31v148c0 17 15 31 32 31s31-14 31-31V119c0-18-14-31-31-31zm191 0c-17 0-31 14-31 31v148c0 17 14 31 31 31s32-14 32-31V119c0-18-15-31-32-31zm22-186H369C220-98 187-9 174 68l-59 360c-3 17 9 33 26 36s33-9 36-26l58-360C248 5 273-35 369-35h251C728-35 740 2 753 75l70 364c4 17 20 29 37 25s28-20 25-37L815 63C798-22 771-98 620-98z" glyph-name="bag" horiz-adv-x="1000" unicode=""/><glyph d="M875 360H125c-40 0-73 33-73 73v139c0 28 20 57 46 67l375 150c16 6 38 6 54 0l375-150c26-10 46-39 46-67V433c0-40-33-73-73-73zM500 732c-2 0-3 0-4-1L121 581c-2-1-6-6-6-9V433c0-5 4-10 10-10h750c6 0 10 5 10 10v139c0 3-3 8-6 9L504 731c-1 1-2 1-4 1zM917-98H83c-17 0-31 14-31 31V58c0 40 33 73 73 73h750c40 0 73-33 73-73V-67c0-17-14-31-31-31zM115-35h770v93c0 6-4 11-10 11H125c-6 0-10-5-10-11v-93zm52 104c-17 0-32 14-32 31v292c0 17 15 31 32 31s31-14 31-31V100c0-17-14-31-31-31zm166 0c-17 0-31 14-31 31v292c0 17 14 31 31 31s32-14 32-31V100c0-17-15-31-32-31zm167 0c-17 0-31 14-31 31v292c0 17 14 31 31 31s31-14 31-31V100c0-17-14-31-31-31zm167 0c-17 0-32 14-32 31v292c0 17 15 31 32 31s31-14 31-31V100c0-17-14-31-31-31zm166 0c-17 0-31 14-31 31v292c0 17 14 31 31 31s32-14 32-31V100c0-17-15-31-32-31zM958-98H42c-17 0-32 14-32 31s15 32 32 32h916c17 0 32-15 32-32s-15-31-32-31zM500 465c-52 0-94 42-94 93 0 52 42 94 94 94s94-42 94-94c0-51-42-93-94-93zm0 125c-17 0-31-15-31-32s14-31 31-31 31 14 31 31-14 32-31 32z" glyph-name="bank" horiz-adv-x="1000" unicode=""/><glyph d="M708-35H292C140-35 52 52 52 204v292c0 152 88 239 240 239h416c152 0 240-87 240-239V204c0-152-88-239-240-239zM292 673c-119 0-177-58-177-177V204c0-119 58-177 177-177h416c120 0 177 58 177 177v292c0 119-57 177-177 177H292zm-42-521c-17 0-31 14-31 31v334c0 17 14 31 31 31s31-14 31-31V183c0-17-14-31-31-31zm125 167c-17 0-31 14-31 31v167c0 17 14 31 31 31s31-14 31-31V350c0-17-14-31-31-31zm0-167c-17 0-31 14-31 31v42c0 17 14 31 31 31s31-14 31-31v-42c0-17-14-31-31-31zm250 292c-17 0-31 14-31 31v42c0 17 14 31 31 31s31-14 31-31v-42c0-17-14-31-31-31zM500 152c-17 0-31 14-31 31v334c0 17 14 31 31 31s31-14 31-31V183c0-17-14-31-31-31zm125 0c-17 0-31 14-31 31v167c0 17 14 31 31 31s31-14 31-31V183c0-17-14-31-31-31zm125 0c-17 0-31 14-31 31v334c0 17 14 31 31 31s31-14 31-31V183c0-17-14-31-31-31z" glyph-name="barcode" horiz-adv-x="1000" unicode=""/><glyph d="M854 215c-17 0-31 14-31 31s14 31 31 31c25 0 30 4 31 4v111c0 10 0 24-1 28-1 0-7 3-30 3-17 0-31 14-31 31s14 31 31 31c87 0 94-42 94-93v-84c0-51-7-93-94-93zm-588 20c-3 0-5 1-8 1-16 4-27 22-23 38 13 50 13 102 0 152-4 17 6 34 23 38s34-6 38-23c15-60 15-123 0-182-3-14-16-24-30-24zm146 0c-3 0-5 1-8 1-16 4-27 22-23 38 13 50 13 102 0 152-4 17 6 34 23 38s34-6 38-23c15-60 15-123 0-182-4-14-17-24-30-24zM542 27H292C108 27 52 83 52 267v166c0 184 56 240 240 240h250c183 0 239-56 239-240V267c0-184-56-240-239-240zM292 610c-149 0-177-28-177-177V267c0-149 28-177 177-177h250c148 0 177 28 177 177v166c0 149-29 177-177 177H292z" glyph-name="battery-3full" horiz-adv-x="1000" unicode=""/><glyph d="M854 215c-17 0-31 14-31 31s14 31 31 31c25 0 30 4 31 4v111c0 10 0 24-1 28-1 0-7 3-30 3-17 0-31 14-31 31s14 31 31 31c87 0 94-42 94-93v-84c0-51-7-93-94-93zm-437-63c-7 0-15 3-21 8-13 11-14 30-3 44l87 101c1 4 0 7-1 9s-4 5-9 5h-96c-26 0-50 14-63 36-14 23-14 50 0 73l81 107c10 14 30 17 44 7 13-11 16-30 6-44l-79-104c0-1 1-5 2-7s4-5 9-5h96c26 0 50-14 63-37 14-22 14-50 0-72 0-2-2-4-3-5l-89-104c-7-8-15-12-24-12zM292 27C108 27 52 83 52 267v166c0 184 56 240 240 240 17 0 31-14 31-31s-14-32-31-32c-149 0-177-28-177-177V267c0-149 28-177 177-177 17 0 31-15 31-32s-14-31-31-31zm250 0c-17 0-32 14-32 31s15 32 32 32c148 0 177 28 177 177v166c0 149-29 177-177 177-17 0-32 15-32 32s15 31 32 31c183 0 239-56 239-240V267c0-184-56-240-239-240z" glyph-name="battery-charging" horiz-adv-x="1000" unicode=""/><glyph d="M854 215c-17 0-31 14-31 31s14 31 31 31c25 0 30 4 31 4v111c0 10 0 24-1 28-1 0-7 3-30 3-17 0-31 14-31 31s14 31 31 31c87 0 94-42 94-93v-84c0-51-7-93-94-93zM167-77c-6 0-12 2-17 5-14 9-19 28-9 43l500 792c9 14 28 18 42 9 15-9 20-28 10-43L193-63c-6-9-16-14-26-14zm58 107h-4C80 46 52 129 52 267v166c0 184 56 240 240 240 17 0 31-14 31-31s-14-32-31-32c-149 0-177-28-177-177V267c0-139 28-165 113-174 17-3 30-18 27-35-1-16-15-28-30-28zm317-3c-17 0-32 14-32 31s15 32 32 32c148 0 177 28 177 177v166c0 138-29 165-113 175-17 2-30 17-28 34s17 30 35 28c141-16 168-99 168-237V267c0-184-56-240-239-240z" glyph-name="battery-disable" horiz-adv-x="1000" unicode=""/><glyph d="M542 27H292C108 27 52 83 52 267v166c0 184 56 240 240 240h250c183 0 239-56 239-240V267c0-184-56-240-239-240zM292 610c-149 0-177-28-177-177V267c0-149 28-177 177-177h250c149 0 177 28 177 177v166c0 149-28 177-177 177H292zm562-395c-17 0-31 14-31 31s14 31 31 31c25 0 30 4 31 4v111c0 10 0 24-1 28-1 0-7 3-30 3-17 0-31 14-31 31s14 31 31 31c87 0 94-42 94-93v-84c0-51-7-93-94-93zm-588 20c-3 0-5 1-8 1-16 4-27 22-23 38 13 50 13 102 0 152-4 17 6 34 23 38s34-6 38-23c15-60 15-123 0-182-3-14-16-24-30-24z" glyph-name="battery-empty-1" horiz-adv-x="1000" unicode=""/><glyph d="M542 27H292C108 27 52 83 52 267v166c0 184 56 240 240 240h250c183 0 239-56 239-240V267c0-184-56-240-239-240zM292 610c-149 0-177-28-177-177V267c0-149 28-177 177-177h250c149 0 177 28 177 177v166c0 149-28 177-177 177H292zm562-395c-17 0-31 14-31 31s14 31 31 31c25 0 30 4 31 4v111c0 10 0 24-1 28 0 0-7 3-30 3-17 0-31 14-31 31s14 31 31 31c87 0 94-42 94-93v-84c0-51-7-93-94-93z" glyph-name="battery-empty" horiz-adv-x="1000" unicode=""/><glyph d="M854 215c-17 0-31 14-31 31s14 31 31 31c25 0 30 4 31 4v111c0 10 0 24-1 28-1 0-7 3-30 3-17 0-31 14-31 31s14 31 31 31c87 0 94-42 94-93v-84c0-51-7-93-94-93zm-588 20c-3 0-5 1-8 1-16 4-27 22-23 38 13 50 13 102 0 152-4 17 6 34 23 38s34-6 38-23c15-60 15-123 0-182-3-14-16-24-30-24zm146 0c-3 0-5 1-8 1-16 4-27 22-23 38 13 50 13 102 0 152-4 17 6 34 23 38s34-6 38-23c15-60 15-123 0-182-4-14-17-24-30-24zm146 0c-3 0-5 1-8 1-17 4-27 22-23 38 13 50 13 102 0 152-4 17 6 34 23 38s34-6 38-23c15-60 15-123 0-182-4-14-17-24-30-24zM542 27H292C108 27 52 83 52 267v166c0 184 56 240 240 240h250c183 0 239-56 239-240V267c0-184-56-240-239-240zM292 610c-149 0-177-28-177-177V267c0-149 28-177 177-177h250c148 0 177 28 177 177v166c0 149-29 177-177 177H292z" glyph-name="battery-full" horiz-adv-x="1000" unicode=""/><glyph d="M125 444c-63 0-115 51-115 114 0 64 52 115 115 115s115-51 115-115c0-63-52-114-115-114zm0 166c-29 0-52-23-52-52 0-28 23-52 52-52s52 24 52 52c0 29-23 52-52 52zm750-166c-63 0-115 51-115 114 0 64 52 115 115 115s115-51 115-115c0-63-52-114-115-114zm0 166c-29 0-52-23-52-52 0-28 23-52 52-52s52 24 52 52c0 29-23 52-52 52zm-83-83H625c-17 0-31 14-31 31s14 32 31 32h167c17 0 31-15 31-32s-14-31-31-31zm-417 0H208c-17 0-31 14-31 31s14 32 31 32h167c17 0 31-15 31-32s-14-31-31-31zM250-15h-83c-52 0-94 43-94 94v84c0 51 42 93 94 93h83c52 0 94-42 94-93V79c0-37-22-71-56-85-12-6-25-9-38-9zm-83 209c-17 0-32-14-32-31V79c0-17 15-31 32-31h83c4 0 8 1 12 3 12 5 19 16 19 28v84c0 17-14 31-31 31h-83zM833-15h-83c-13 0-26 3-39 9-33 14-55 48-55 85v84c0 51 42 93 94 93h83c52 0 94-42 94-93V79c0-51-42-94-94-94zm-83 209c-17 0-31-14-31-31V79c0-12 7-23 18-28 5-2 9-3 13-3h83c17 0 32 14 32 31v84c0 17-15 31-32 31h-83zM563 402H438c-52 0-94 42-94 94v125c0 52 42 94 94 94h125c51 0 93-42 93-94V496c0-52-42-94-93-94zM438 652c-18 0-32-14-32-31V496c0-17 14-31 32-31h125c17 0 31 14 31 31v125c0 17-14 31-31 31H438zm352-458h-3c-17 2-30 17-28 34 1 6 1 12 1 17 0 109-59 209-150 255-15 8-21 26-13 42 8 15 26 21 42 13 111-56 184-178 184-310 0-8-1-16-2-24-1-16-15-27-31-27zm-580 0c-16 0-30 11-31 27-1 9-2 17-2 25 0 132 72 253 184 310 15 8 34 2 42-14 8-15 2-34-14-42-91-46-149-146-149-254v-17c3-17-10-33-27-35h-3z" glyph-name="bezier" horiz-adv-x="1000" unicode=""/><glyph d="M500-77c-34 0-68 11-97 32L186 118c-40 30-64 78-64 129v530h756V247c0-51-24-99-64-129L597-45c-29-21-63-32-97-32zM184 715V247c0-31 15-60 40-79L441 5c35-26 84-26 119 0l217 163c24 19 39 48 39 79v468H184zm733 0H83c-17 0-31 14-31 31s14 31 31 31h834c17 0 31-14 31-31s-14-31-31-31zM667 485H333c-17 0-31 15-31 32s14 31 31 31h334c17 0 31-14 31-31s-14-32-31-32zm0-208H333c-17 0-31 14-31 31s14 32 31 32h334c17 0 31-15 31-32s-14-31-31-31z" glyph-name="bill" horiz-adv-x="1000" unicode=""/><glyph d="M542 465H83c-17 0-31 14-31 31s14 31 31 31h459c17 0 31-14 31-31s-14-31-31-31zM333 131h-83c-17 0-31 14-31 32 0 17 14 31 31 31h83c17 0 32-14 32-31 0-18-15-32-32-32zm271 0H438c-18 0-32 14-32 32 0 17 14 31 32 31h166c17 0 31-14 31-31 0-18-14-32-31-32zM732-35H268C103-35 52 15 52 179v342c0 164 51 214 216 214h285c17 0 32-14 32-31s-15-31-32-31H268c-130 0-153-23-153-152V179c0-129 23-152 153-152h464c131 0 153 23 153 152v199c0 17 15 31 32 31s31-14 31-31V179c0-164-50-214-216-214zm106 614H708c-17 0-31 14-31 31v105c0 17 14 31 31 31h131c44 0 83-39 83-83 0-46-37-84-84-84zm-98 63h99c11 0 21 9 21 21 0 9-10 20-21 20h-99v-41zm117-167H708c-17 0-31 14-31 31v104c0 18 14 32 31 32h149c50 0 91-38 91-84 0-45-41-83-91-83zm-117 63h117c16 0 28 9 28 20 0 12-12 21-28 21H740v-41zm42-115c-17 0-32 14-32 31v52c0 17 15 32 32 32s31-15 31-32v-52c0-17-14-31-31-31zm0 260c-17 0-32 15-32 32v52c0 17 15 31 32 31s31-14 31-31v-52c0-17-14-32-31-32zm-24 0h-91c-17 0-32 15-32 32s15 31 32 31h91c17 0 31-14 31-31s-14-32-31-32zm0-208h-91c-17 0-32 14-32 31s15 32 32 32h91c17 0 31-15 31-32s-14-31-31-31z" glyph-name="bitcoin-card" horiz-adv-x="1000" unicode=""/><glyph d="M667-138c-12 0-22 6-27 15-6 10-6 22 0 32l44 73c9 15 28 19 43 10 15-8 19-27 11-42l-12-19C841-42 928 61 928 185c0 17 14 31 31 31s31-14 31-31c0-178-145-323-323-323zM42 487c-17 0-32 14-32 31 0 178 145 323 323 323 12 0 22-6 27-16 6-10 6-22 0-31l-44-73c-8-15-28-20-43-11s-19 28-10 43l11 19C159 745 73 641 73 518c0-17-14-31-31-31zm351-307H276c-17 0-31 14-31 31v94c0 17 14 31 31 31h117c42 0 78-36 78-78 0-43-35-78-78-78zm-86 63h86c9 0 16 7 16 15 0 7-7 16-16 16h-86v-31zM410 86H275c-17 0-31 14-31 32v93c0 17 14 32 31 32h135c46 0 85-35 85-79 0-43-38-78-85-78zm-103 63h103c13 0 23 8 23 16 0 7-10 15-23 15H307v-31zm44-109c-17 0-31 14-31 31v47c0 17 14 31 31 31s31-14 31-31V71c0-18-14-31-31-31zm0 234c-17 0-31 14-31 31v48c0 17 14 31 31 31s31-14 31-31v-48c0-17-14-31-31-31zm10-351C202-77 73 53 73 211c0 159 130 289 288 289 8 0 14-1 22-1 141-11 255-125 266-266 0-9 1-15 1-22C650 53 520-77 361-77zm0 515c-124 0-226-102-226-226C135 87 237-14 361-14c125 0 227 101 227 226 0 5-1 11-1 16-9 112-98 201-208 209-6 0-11 1-18 1zm278-238h-21c-16 0-30 13-31 29-8 110-97 199-208 208-16 1-29 15-29 31v20c0 160 130 289 289 289s289-130 289-289c0-158-130-288-289-288zM413 495c117-21 211-115 232-232 122 3 220 103 220 225 0 125-102 226-226 226-123 1-223-97-226-219z" glyph-name="bitcoin-convert" horiz-adv-x="1000" unicode=""/><glyph d="M186 343c-8 0-16 3-22 9l-50 51-51-51c-12-12-32-12-44 0s-12 32 0 44l73 73c12 12 32 12 44 0l72-73c12-12 12-32 0-44-5-6-14-9-22-9zm700-121c-8 0-16 3-22 9l-73 73c-12 12-12 32 0 44s32 12 45 0l50-50 50 50c12 12 32 12 45 0 12-12 12-32 0-44l-73-73c-6-6-14-9-22-9zm0 0c-17 0-31 14-31 31v97c0 195-160 355-355 355-108 0-209-49-277-133-10-14-30-16-43-5-14 11-16 30-5 43 79 100 198 157 325 157 230 0 417-187 417-417v-97c0-17-14-31-31-31zM500-67C270-67 83 120 83 350v97c0 17 14 31 31 31s31-14 31-31v-97C145 155 305-5 500-5c108 0 209 49 277 133 11 14 30 16 43 5 14-10 16-30 5-43C746-10 627-67 500-67zm58 386H375c-17 0-31 14-31 31v146c0 17 14 31 31 31h183c55 0 104-49 104-104 0-58-47-104-104-104zm-152 62h151c23 0 42 19 42 42 0 19-19 42-42 42H406v-84zm177-208H375c-17 0-31 14-31 31v146c0 17 14 31 31 31h208c64 0 115-46 115-104 0-57-51-104-115-104zm-177 62h177c29 0 52 19 52 42s-23 42-52 42H406v-84zm86-135c-17 0-32 14-32 31v73c0 17 15 31 32 31s31-14 31-31v-73c0-17-14-31-31-31zm0 365c-17 0-32 14-32 31v73c0 17 15 31 32 31s31-14 31-31v-73c0-17-14-31-31-31z" glyph-name="bitcoin-refresh" horiz-adv-x="1000" unicode=""/><glyph d="M374 152c-16 0-31 1-44 3C172 176 51 314 51 475c0 178 145 323 323 323 161 0 299-120 319-280 2-13 4-27 4-43 0-178-145-323-323-323zm0 583c-144 0-261-116-261-260 0-130 97-241 226-258 11-2 22-2 35-2 144 0 260 116 260 260 0 13-1 24-2 34-17 129-128 226-258 226zM624-98C463-98 325 23 304 182c-1 10 2 20 9 27s18 10 27 8c10-2 21-2 34-2 144 0 260 116 260 260 0 13-1 24-2 34-2 9 1 19 8 26 7 8 16 11 27 10 159-21 280-159 280-320C947 47 802-98 624-98zM374 152C406 43 507-35 624-35c144 0 260 116 260 260 0 117-78 218-187 250 0-178-145-323-323-323zm269 25c-8 0-16 3-22 8l-54 54c-12 12-13 32-1 44s32 12 44 0l55-53c12-12 12-32 0-44-6-6-14-9-22-9zm64 142c-8 0-16 3-22 9l-42 42c-12 12-12 32 0 44s32 12 45 0l41-42c12-12 12-32 0-44-6-6-14-9-22-9zM499 110c-8 0-16 3-22 10l-42 41c-12 12-12 32 0 44 12 13 32 13 44 0l42-41c12-12 12-32 0-44-6-7-14-10-22-10z" glyph-name="blend-2" horiz-adv-x="1000" unicode=""/><glyph d="M665 69c-69 0-136 26-187 72-7 6-10 14-10 23s3 18 10 24c46 40 73 100 73 162 0 63-27 122-73 163-7 5-10 14-10 23s3 17 10 23c52 47 118 72 187 72 155 0 282-126 282-281S821 69 665 69zm-119 98c35-23 77-36 120-36 120 0 219 99 219 219s-99 219-219 219c-43 0-85-13-120-36 43-50 68-115 68-183s-25-132-68-183zM332 69C177 69 51 195 51 350s126 281 281 281c70 0 136-26 188-72 59-52 93-129 93-209s-34-156-93-209c-52-46-118-72-188-72zm0 500c-120 0-219-99-219-219s99-219 219-219c54 0 106 20 146 57 47 41 73 100 73 162s-27 122-73 163c-40 36-92 56-146 56z" glyph-name="blend" horiz-adv-x="1000" unicode=""/><glyph d="M505-98c-11 0-20 3-26 6-15 7-40 27-40 79v269L214 50c-12-12-32-11-44 2s-11 33 2 44l267 245v19L172 604c-13 12-14 31-2 44s32 14 44 2l225-205v268c0 53 25 73 40 80s46 13 87-20l160-134c18-15 28-36 29-58 0-22-9-43-26-58L541 350l188-172c16-15 26-37 26-58-1-22-11-43-29-58L566-72c-24-20-45-26-61-26zm-4 400V-13c0-15 4-22 5-23 1 1 8 2 20 12l160 134c4 3 6 7 6 11s-2 8-5 11L501 302zm4 433s-4-7-4-22V398l186 170c3 3 5 7 5 11s-2 8-6 11L525 724c-10 9-17 11-20 11zM208 277c-40 0-73 33-73 73s33 73 73 73 73-33 73-73-33-73-73-73zm0 83c-5 0-10-4-10-10 0-12 21-12 21 0 0 6-5 10-11 10zm584-83c-40 0-73 33-73 73s33 73 73 73 73-33 73-73-33-73-73-73zm0 83c-6 0-11-4-11-10 0-12 21-12 21 0 0 6-4 10-10 10z" glyph-name="bluetooth-2" horiz-adv-x="1000" unicode=""/><glyph d="M525 95c-9 0-16 3-20 5-10 4-30 18-30 55v112l-96-88c-13-12-33-11-44 2-12 13-11 32 2 44l136 125-136 126c-13 12-14 31-2 44 11 13 31 14 44 2l96-88v111c0 38 20 51 30 56 8 4 33 11 62-13l86-71c12-11 20-26 20-42s-6-32-18-42l-89-82 89-81c12-11 18-27 18-42 0-16-8-32-20-42l-86-72c-16-15-31-19-42-19zm13 196V170l69 58-69 63zm0 239V409l69 64-69 57zM500-98C253-98 52 103 52 350s201 448 448 448 448-201 448-448S747-98 500-98zm0 833c-212 0-385-172-385-385 0-212 173-385 385-385 213 0 385 173 385 385 0 213-172 385-385 385z" glyph-name="bluetooth-circle" horiz-adv-x="1000" unicode=""/><glyph d="M525 95c-9 0-16 3-20 5-10 4-30 18-30 55v112l-96-88c-13-12-33-11-44 2-12 13-11 32 2 44l136 125-136 126c-13 12-14 31-2 44 11 13 31 14 44 2l96-88v111c0 38 20 51 30 56 8 4 33 11 62-13l86-71c12-11 20-26 20-42s-6-32-18-42l-89-82 89-81c12-11 18-27 18-42 0-16-8-32-20-42l-86-72c-16-15-31-19-42-19zm13 196V170l69 58-69 63zm0 239V409l69 64-69 57zm87-628H375C232-98 135-2 135 142v416c0 144 97 240 240 240h250c143 0 240-96 240-240V142C865-2 768-98 625-98zM375 735c-107 0-177-69-177-177V142c0-108 70-177 177-177h250c108 0 177 69 177 177v416c0 108-69 177-177 177H375z" glyph-name="bluetooth-rectangle" horiz-adv-x="1000" unicode=""/><glyph d="M547-98c-11 0-20 3-26 6-15 7-41 27-41 79v269L256 50c-13-12-33-11-44 2-12 13-11 33 2 44l266 245v19L214 604c-13 12-14 31-2 44 11 13 31 14 44 2l224-205v268c0 53 26 73 41 80s46 13 87-20l160-134c17-15 28-36 28-58 1-22-8-43-26-58L583 350l187-172c17-15 27-37 26-58 0-22-11-43-28-58L608-72c-24-20-45-26-61-26zm-4 400V-13c0-15 3-22 5-23 0 1 8 2 20 12l160 134c4 3 6 7 6 11s-2 8-6 11L543 302zm4 433c-1 0-4-7-4-22V398l185 170c4 3 6 7 6 11s-2 8-6 11L567 724c-11 9-18 11-20 11z" glyph-name="bluetooth" horiz-adv-x="1000" unicode=""/><glyph d="M500-98C297-98 131 68 131 271c-1 239 227 437 324 512 27 20 63 20 90 0 98-76 325-277 324-513C869 68 703-98 500-98zm0 833c-2 0-5 0-7-2-70-54-300-246-299-462 0-169 138-306 306-306 169 0 307 137 307 305 1 214-229 408-300 463-3 2-5 2-7 2zm0-833c-17 0-31 14-31 31v834c0 17 14 31 31 31s31-14 31-31V-67c0-17-14-31-31-31zm0 127c-12 0-23 6-28 17-8 16-2 34 14 42l321 156c16 7 34 1 42-15 7-15 1-34-15-41L513 32c-4-2-8-3-13-3zm0 208c-12 0-23 7-28 18-8 15-2 34 14 41l307 149c16 8 35 2 42-14 8-16 1-34-15-42L513 240c-4-2-8-3-13-3zm0 208c-12 0-23 7-28 18-8 15-2 34 14 42l210 101c15 8 34 1 42-14 7-16 1-34-15-42L513 448c-4-1-8-3-13-3z" glyph-name="blur" horiz-adv-x="1000" unicode=""/><glyph d="M500-70c-12 0-25 3-35 9-78 42-215 87-301 99l-12 1C97 46 52 97 52 153v503c0 33 13 63 37 84 24 22 54 33 87 30 92-7 230-53 308-102l10-6c3-2 9-2 12-1l7 4c78 50 216 96 308 104h5c31 3 62-8 85-29 24-22 37-52 37-85V152c0-56-45-107-100-113l-14-2c-86-11-223-57-299-99-10-6-22-8-35-8zM166 708c-13 0-26-5-35-14-11-9-16-23-16-38V153c0-25 21-49 45-52l12-2C266 87 410 40 493-6c4-2 9-2 11-1 84 46 228 94 322 106l14 2c24 3 45 27 45 52v502c0 16-5 29-16 39s-24 14-40 14h-5c-79-8-208-50-278-94l-6-5c-23-14-56-14-78 0l-10 6c-71 43-199 86-281 93h-5zM500-35c-17 0-31 14-31 31v625c0 17 14 32 31 32s31-15 31-32V-4c0-17-14-31-31-31zM323 465h-94c-17 0-31 14-31 31s14 32 31 32h94c17 0 31-15 31-32s-14-31-31-31zm31-125H229c-17 0-31 14-31 31s14 32 31 32h125c17 0 31-15 31-32s-14-31-31-31z" glyph-name="book-1" horiz-adv-x="1000" unicode=""/><glyph d="M500-70c-12 0-25 3-35 9-78 42-215 87-301 99l-12 1c-54 7-99 58-99 114v503c0 33 12 63 36 84 24 22 55 33 87 30 92-8 230-54 308-102l10-6c3-2 9-2 12 0l7 4c27 17 62 34 101 50 9 4 20 2 29-3 9-6 14-16 14-26V575l34 23c11 7 24 7 35 0l34-23v159c0 15 11 28 26 31 12 2 24 4 35 5h5c30 2 62-8 85-30 24-22 37-52 37-85V153c0-56-45-107-100-114l-14-1c-86-12-224-57-300-99-9-6-21-9-34-9zM166 708c-13 0-26-5-35-13-11-10-16-24-16-39V153c0-25 21-49 45-52l12-2C266 87 410 40 493-6c4-2 9-2 11-2 84 47 228 94 322 107l14 1c24 3 45 28 45 52v503c0 15-5 29-16 39-10 9-25 14-40 13h-6V517c0-12-6-22-16-28-11-5-23-5-32 2l-66 44-66-44c-10-6-22-7-32-2-10 6-17 16-17 28v122c-18-9-34-18-48-26l-7-4c-23-14-55-14-77-1l-10 7c-71 44-199 86-281 93h-5zM500-35c-17 0-31 14-31 31v625c0 17 14 32 31 32s31-15 31-32V-4c0-17-14-31-31-31zm292 520c-7 0-12 2-18 6l-66 44-65-44c-10-6-22-7-33-2-10 6-16 16-16 28v170c0 13 8 24 19 29 58 23 121 41 174 49 9 2 18-1 25-7s11-15 11-24V517c0-12-6-22-17-28-4-2-9-4-14-4zm-84 118c6 0 12-1 18-5l34-23v121c-33-7-69-18-104-31v-90l35 23c5 4 12 5 17 5z" glyph-name="book-saved" horiz-adv-x="1000" unicode=""/><glyph d="M625-98H375C149-98 52-1 52 225v250c0 226 97 323 323 323h250c226 0 323-97 323-323V225C948-1 851-98 625-98zM375 735c-192 0-260-68-260-260V225c0-192 68-260 260-260h250c192 0 260 68 260 260v250c0 192-68 260-260 260H375zM500 60c-10 0-20 3-28 8-49 26-134 54-188 61l-8 1c-41 5-73 42-73 84v321c0 24 10 47 27 63 18 15 40 23 64 21 61-5 149-34 201-66l5-3 1 1c53 33 141 63 202 68h5c21 2 45-6 62-21 17-16 27-38 27-63V215c0-42-33-78-74-84l-9-1c-53-7-139-35-186-62-8-5-18-8-28-8zM287 556c-6 0-11-2-14-5-5-4-7-10-7-16V214c0-10 9-21 19-22l8-1c60-8 154-39 208-68 50 29 144 60 205 68l9 1c10 1 19 12 19 22v320c0 7-2 12-6 16-5 5-11 6-18 6h-4c-48-4-128-31-171-58l-4-3c-18-11-44-11-62 0l-6 3c-44 28-123 54-174 58h-2zM500 83c-17 0-31 14-31 31v399c0 17 14 31 31 31s31-14 31-31V114c0-17-14-31-31-31z" glyph-name="book-square" horiz-adv-x="1000" unicode=""/><glyph d="M146 69c-17 0-31 14-31 31v458c0 184 55 240 239 240h292c184 0 239-56 239-240V122c-1-17-17-30-33-29-17 1-31 16-29 33v432c0 149-28 177-177 177H354c-149 0-177-28-177-177V100c0-17-14-31-31-31zM708-98H292c-98 0-177 80-177 177v27c0 83 67 150 150 150h589c17 0 31-14 31-31V79c0-97-79-177-177-177zM265 194c-49 0-88-39-88-88V79c0-63 51-114 115-114h416c64 0 115 51 115 114v115H265zm402 333H333c-17 0-31 14-31 31s14 32 31 32h334c17 0 31-15 31-32s-14-31-31-31zM542 381H333c-17 0-31 14-31 32 0 17 14 31 31 31h209c17 0 31-14 31-31 0-18-14-32-31-32z" glyph-name="book" horiz-adv-x="1000" unicode=""/><glyph d="M638 224c-24 0-50 8-77 24l-55 34c-2 1-10 1-12 0l-55-34c-45-27-89-31-125-11-34 19-54 58-54 110v293c0 102 56 158 157 158h166c101 0 157-56 157-158V347c0-52-20-91-54-110-15-9-31-13-48-13zM500 345c14 0 28-3 39-10l55-33c24-15 47-19 61-11s22 29 22 56v293c0 67-28 95-94 95H416c-66 0-93-28-93-95V347c0-28 7-48 21-56s37-4 61 11l55 33c13 7 26 10 40 10zM625-98H375C149-98 52 0 52 228v126c0 194 70 293 227 319 16 3 33-9 36-26s-9-33-26-36c-126-21-175-93-175-257V228c0-192 71-263 261-263h250c190 0 260 71 260 263v126c0 167-51 239-182 259-17 2-28 18-26 35 3 17 18 29 36 26 162-24 235-122 235-320V228C948 0 851-98 625-98z" glyph-name="bookmark-2" horiz-adv-x="1000" unicode=""/><glyph d="M625-98H375C149-98 52-1 52 225v250c0 226 97 323 323 323h250c226 0 323-97 323-323V225C948-1 851-98 625-98zM375 735c-192 0-260-68-260-260V225c0-192 68-260 260-260h250c192 0 260 68 260 260v250c0 192-68 260-260 260H375zm-13-524c-18 0-34 4-48 12-35 20-54 59-54 110v415c0 17 15 32 32 32s31-15 31-32V333c0-28 8-48 22-55 14-8 37-4 61 10l55 33c23 14 55 14 77 0l55-33c25-15 48-18 62-10s22 28 22 55v415c0 17 14 32 31 32s31-15 31-32V333c0-51-19-90-53-110-35-19-80-15-125 12l-55 33c-2 1-10 1-13 0l-55-33c-25-16-52-24-76-24zM625-98H375C149-98 52-1 52 225v250c0 226 97 323 323 323h250c226 0 323-97 323-323V225C948-1 851-98 625-98zM375 735c-192 0-260-68-260-260V225c0-192 68-260 260-260h250c192 0 260 68 260 260v250c0 192-68 260-260 260H375zm-13-524c-18 0-34 4-48 12-35 20-54 59-54 110v415c0 17 15 32 32 32s31-15 31-32V333c0-28 8-48 22-55 14-8 37-4 61 10l55 33c23 14 55 14 77 0l55-33c25-15 48-18 62-10s22 28 22 55v415c0 17 14 32 31 32s31-15 31-32V333c0-51-19-90-53-110-35-19-80-15-125 12l-55 33c-2 1-10 1-13 0l-55-33c-25-16-52-24-76-24z" glyph-name="bookmark" horiz-adv-x="1000" unicode=""/><glyph d="M500 296c-5 0-11 1-16 4L116 513c-14 9-20 28-11 43s28 20 43 11l352-204 350 203c15 9 34 3 43-11 9-15 3-35-11-43L516 300c-5-2-11-4-16-4zm0-378c-17 0-31 14-31 32v378c0 17 14 31 31 31s31-14 31-31V-50c0-18-14-32-31-32zm0-16c-37 0-73 8-102 24L176 50C115 83 68 163 68 233v235c0 69 47 149 108 183l222 123c57 32 147 32 204 0l222-124c61-33 108-113 108-182V232c0-69-47-149-108-183L602-74c-29-16-65-24-102-24zm0 833c-26 0-52-5-71-15L206 596c-40-22-75-82-75-128V233c0-46 35-106 75-129L429-20c38-21 104-21 142 0l223 124c40 23 75 82 75 129v235c0 46-35 106-75 128L571 720c-19 10-45 15-71 15z" glyph-name="box-1" horiz-adv-x="1000" unicode=""/><glyph d="M500-98c-2 0-5 0-7 1-3 0-5 2-8 3l-92 46c-15 8-21 26-14 42 8 15 27 21 42 14l48-24v65c0 17 14 31 31 31s31-14 31-31v-65l48 24c15 7 34 1 42-14 8-16 2-34-14-42l-92-46c-3-1-5-2-8-3-2-1-4-1-7-1zM778 41c-11 0-23 6-28 17-8 15-2 34 14 42l76 38v96c0 17 14 31 31 31s31-14 31-31V118c0-12-7-23-17-28l-92-46c-6-2-10-3-15-3zm-556 0c-4 0-9 1-14 3l-92 46c-11 6-17 17-17 28v116c0 17 14 31 31 31s31-14 31-31v-96l76-38c15-7 21-26 14-42-6-10-17-17-29-17zm278 208c-17 0-31 14-31 31v97l-76 37c-15 8-21 27-14 42 8 16 27 22 42 14l79-39 79 39c15 8 34 2 42-14s2-34-14-42l-76-37v-97c0-17-14-31-31-31zm370 186c-17 0-31 14-31 31v65l-47-24c-16-8-34-2-42 14s-2 34 14 42l36 19-36 18c-16 8-22 27-14 42 8 16 26 22 42 14l92-46c1 0 2 0 3-1 2-1 4-4 6-6 2-1 3-3 4-5 2-3 3-5 4-9 0-2 1-5 1-7V467c0-19-14-32-32-32zm-740 0c-17 0-32 14-32 31v115c0 3 1 5 1 7 1 4 2 7 4 10 1 2 2 3 4 5s4 3 6 5c1 0 2 1 3 1l92 46c15 8 34 2 42-14s2-34-14-42l-37-19 37-18c15-8 22-27 14-42s-26-22-42-14l-48 24v-65c1-17-13-30-30-30zm463 254c-5 0-10 1-14 4l-79 39-79-39c-15-8-34-2-42 14-8 15-1 34 14 42l93 46c9 5 19 5 28 0l92-46c16-8 22-27 14-42-5-12-16-18-27-18z" glyph-name="box-2" horiz-adv-x="1000" unicode=""/><glyph d="M792-98c-59 0-113 25-151 70 0 1-3 3-5 6-4 5-10 13-14 21-19 30-29 65-29 101 0 61 27 118 75 155 35 28 79 43 123 43 49 0 93-16 129-48 5-3 11-9 16-15 34-37 53-85 53-134 0-36-10-72-29-102-10-18-24-34-40-47-33-32-80-50-128-50zm0 333c-31 0-60-10-85-30-32-25-51-64-51-105 0-25 7-49 20-70 3-5 7-10 10-15 1 0 4-3 6-6 23-27 60-45 100-45 33 0 64 12 88 34 11 9 20 20 27 32 13 21 20 45 20 70 0 33-13 66-36 92-3 3-6 6-10 9-26 23-56 34-89 34zm62-165H729c-17 0-31 14-31 31s14 31 31 31h125c17 0 31-14 31-31s-14-31-31-31zM792 6c-17 0-32 14-32 31v125c0 17 15 31 32 31s31-14 31-31V37c0-17-14-31-31-31zM500 296c-5 0-11 1-16 4L116 513c-15 9-20 28-11 43s28 20 43 11l352-204 350 203c15 9 34 3 42-11 9-15 3-35-11-43L515 300c-4-2-10-4-15-4zm0-378c-17 0-31 14-31 32v378c0 17 14 31 31 31s31-14 31-31V-50c0-18-14-32-31-32zm0-16c-37 0-73 8-102 24L176 50C115 83 68 163 68 233v235c0 70 47 150 108 183l222 124c57 32 146 32 203 0l223-124c60-33 108-113 108-183V233c0-5 0-8-1-12-2-11-10-20-21-23-10-4-22-2-30 5-48 42-122 44-173 3-32-25-51-64-51-105 0-25 7-49 20-70 3-6 7-10 10-15 7-7 9-16 7-26-1-9-7-17-15-21l-77-42c-28-17-64-25-101-25zm0 833c-26 0-52-5-71-15L207 596c-41-22-76-82-76-128V233c0-46 36-106 76-128L429-19c38-21 104-21 142 0l47 26c-15 28-24 61-24 94 0 61 27 117 74 154 57 46 138 55 202 28v186c0 46-36 106-76 128L572 720c-20 10-46 15-72 15z" glyph-name="box-add" horiz-adv-x="1000" unicode=""/><glyph d="M500 296c-5 0-11 1-16 4L116 513c-15 9-20 28-11 43s28 20 43 11l352-204 350 203c15 9 34 3 42-11 9-15 3-35-11-43L515 300c-4-2-10-4-15-4zm0-378c-17 0-31 14-31 32v378c0 17 14 31 31 31s31-14 31-31V-50c0-18-14-32-31-32zm0-16c-37 0-73 8-102 24L176 50C115 83 68 163 68 233v235c0 70 47 150 108 183l222 124c57 32 146 32 203 0l223-124c60-33 108-113 108-183V233c0-5 0-8-1-12-2-11-10-20-21-23-10-4-22-2-30 5-48 42-122 44-173 3-32-25-51-64-51-105 0-25 7-49 20-70 3-6 7-10 10-15 7-7 9-16 7-26-1-9-7-17-15-21l-77-42c-28-17-64-25-101-25zm0 833c-26 0-52-5-71-15L207 596c-41-22-76-82-76-128V233c0-46 36-106 76-128L429-19c38-21 104-21 142 0l47 26c-15 28-24 61-24 94 0 61 27 117 74 154 57 46 138 55 202 28v186c0 46-36 106-76 128L572 720c-20 10-46 15-72 15zM792-98c-69 0-134 37-169 96-19 30-29 66-29 102 0 61 27 117 74 155 35 28 79 43 124 43 109 0 198-89 198-198 0-36-10-72-29-102-10-18-24-33-40-47-34-31-81-49-129-49zm0 333c-31 0-60-10-85-30-32-25-51-64-51-105 0-25 7-49 20-70 24-41 68-65 116-65 33 0 64 12 88 33 11 10 20 20 27 32 13 21 20 45 20 70 0 75-61 135-135 135zm44-210c-8 0-16 3-22 10l-88 88c-12 12-12 32 0 44s32 12 44 0l88-88c12-12 12-32 0-44-6-7-14-10-22-10zm-89-1c-8 0-16 3-22 9-12 12-12 32 0 45l88 87c12 13 32 13 44 0 12-12 12-32 0-44l-88-88c-6-6-14-9-22-9z" glyph-name="box-remove" horiz-adv-x="1000" unicode=""/><glyph d="M500 296c-5 0-11 1-16 4L116 513c-15 9-20 28-11 43s28 20 43 11l352-204 350 203c15 9 34 3 43-11 9-15 3-35-11-43L516 300c-5-2-11-4-16-4zm0-378c-17 0-31 14-31 32v378c0 17 14 31 31 31s31-14 31-31V-50c0-18-14-32-31-32zm0-16c-38 0-74 9-102 24L176 50C115 83 68 163 68 233v235c0 70 47 150 108 183l222 124c57 31 146 31 203 0l223-124c60-33 108-113 108-183V316c0-17-14-31-32-31-17 0-31 14-31 31v152c0 46-35 106-75 128L571 720c-38 21-104 21-142 0L207 596c-41-22-76-82-76-128V233c0-46 36-106 76-128L429-19c37-20 106-20 142 0 15 9 34 3 43-12 8-15 3-34-12-42-28-16-64-25-102-25zm300 25C709-73 635 1 635 92s74 164 165 164 165-73 165-164S891-73 800-73zm0 267c-56 0-102-46-102-102 0-57 46-102 102-102S902 35 902 92c0 56-46 102-102 102zM958-98c-8 0-15 3-22 9l-41 42c-12 12-12 32 0 44s32 12 44 0l41-42c13-12 13-32 0-44-6-6-14-9-22-9z" glyph-name="box-search" horiz-adv-x="1000" unicode=""/><glyph d="M792-98c-68 0-131 35-167 93-19 29-30 65-31 101-1 61 24 117 71 156 34 28 78 45 122 46 54 0 103-18 141-55 39-37 60-86 61-139 1-36-8-71-26-103-10-17-23-34-39-47-34-32-80-51-128-52h-4zm0 333h-3c-31 0-60-11-84-31-32-26-49-65-49-107 1-24 8-49 21-69 26-41 70-66 117-63 33 0 64 13 88 35 11 10 20 20 26 32 13 22 19 46 19 71-1 36-16 70-42 95-25 24-58 37-93 37zM769 27c-8 0-16 3-22 9l-42 40c-12 12-13 32-1 44 12 13 32 13 44 1l21-20 65 64c13 12 32 11 44-1 12-13 12-32 0-44l-88-85c-6-5-14-8-21-8zM500 296c-5 0-11 1-16 4L116 513c-15 9-20 28-11 43s28 20 43 11l352-204 350 203c15 9 34 3 42-11 9-15 3-35-11-43L515 300c-4-2-10-4-15-4zm0-378c-17 0-31 14-31 32v378c0 17 14 31 31 31s31-14 31-31V-50c0-18-14-32-31-32zm0-16c-37 0-73 8-102 24L176 50C115 83 68 163 68 233v235c0 70 47 150 108 183l222 124c57 32 146 32 203 0l223-124c60-33 108-113 108-183V233c0-5 0-8-1-12-2-11-10-20-21-23-10-4-22-2-30 5-48 42-122 44-173 3-32-25-51-64-51-105 0-25 7-49 20-70 3-6 7-10 10-15 7-7 9-16 7-26-1-9-7-17-15-21l-77-42c-28-17-64-25-101-25zm0 833c-26 0-52-5-71-15L207 596c-41-22-76-82-76-128V233c0-46 36-106 76-128L429-19c38-21 104-21 142 0l47 26c-15 28-24 61-24 94 0 61 27 117 74 154 57 46 138 55 202 28v186c0 46-36 106-76 128L572 720c-20 10-46 15-72 15z" glyph-name="box-tick" horiz-adv-x="1000" unicode=""/><glyph d="M500 296c-5 0-11 1-16 4L116 513c-15 9-20 28-11 43s28 20 43 11l352-204 350 203c15 9 34 3 43-11 9-15 3-35-11-43L516 300c-5-2-11-4-16-4zm0-378c-17 0-31 14-31 32v378c0 17 14 31 31 31s31-14 31-31V-50c0-18-14-32-31-32zm0-16c-37 0-73 8-102 24L176 50C115 83 68 163 68 233v235c0 70 47 150 108 183l222 124c57 31 146 31 203 0l223-124c60-33 108-113 108-183V233c0-3 0-8-2-13-2-11-10-20-20-23-11-3-22-1-31 6-47 42-121 44-172 3-32-25-51-64-51-105 0-25 7-49 19-70 4-6 7-10 11-14 6-7 9-17 7-26s-8-18-16-22l-76-42c-28-17-64-25-101-25zm0 833c-26 0-52-5-71-15L207 596c-41-22-76-82-76-128V233c0-46 36-106 76-128L429-19c38-21 104-21 142 0l47 26c-15 28-24 61-24 94 0 61 27 117 74 154 57 46 138 55 202 28v186c0 46-36 106-76 128L572 720c-20 10-46 15-72 15zM792-98C683-98 594-9 594 100c0 61 27 117 74 155 35 28 79 43 124 43 109 0 198-89 198-198 0-57-25-111-68-148-36-32-82-50-130-50zm0 333c-31 0-60-10-85-30-32-25-51-64-51-105 0-75 61-135 136-135 32 0 64 12 89 33 29 26 46 63 46 102 0 75-61 135-135 135zM750 27c-10 0-21 6-27 15-8 15-4 34 11 43l37 22v45c0 17 14 31 32 31 17 0 31-14 31-31V90c0-11-6-22-15-27l-52-31c-6-4-12-5-17-5z" glyph-name="box-time" horiz-adv-x="1000" unicode=""/><glyph d="M500 296c-5 0-11 1-16 4L116 513c-15 9-20 28-11 43s28 20 43 11l352-204 350 203c15 9 34 3 43-11 9-15 3-35-11-43L516 300c-5-2-11-4-16-4zm0-378c-17 0-31 14-31 32v378c0 17 14 31 31 31s31-14 31-31V-50c0-18-14-32-31-32zm0-16c-37 0-73 8-102 24L176 50C115 83 68 163 68 233v235c0 69 47 149 108 183l222 123c57 32 147 32 204 0l222-124c61-33 108-113 108-182V232c0-69-47-149-108-183L602-74c-29-16-65-24-102-24zm0 833c-26 0-52-5-71-15L206 596c-40-23-75-82-75-128V232c0-46 35-106 75-128L429-20c38-21 104-21 142 0l223 124c40 22 75 82 75 128v236c0 45-35 105-75 128L571 720c-19 10-45 15-71 15zm208-468c-17 0-31 14-31 31v135L297 652c-15 8-20 28-11 42 9 15 27 20 42 11l396-228c9-5 16-16 16-27V298c0-17-14-31-32-31z" glyph-name="box" horiz-adv-x="1000" unicode=""/><glyph d="M667-98H333C141-98 105-8 96 79L65 413c-5 43-6 108 37 156 38 42 100 62 190 62h416c91 0 153-21 190-62 43-48 42-113 37-157L904 79C895-8 859-98 667-98zM292 569c-71 0-119-14-144-41-20-23-27-58-21-109l31-334c7-66 25-120 175-120h334c150 0 168 54 175 120l31 333c6 52-1 87-21 110-25 27-73 41-144 41H292zm375 0c-17 0-32 14-32 31v33c0 75 0 102-102 102h-66c-102 0-102-27-102-102v-33c0-17-15-31-32-31s-31 14-31 31v33c0 74 0 165 165 165h66c165 0 165-91 165-165v-33c0-17-14-31-31-31zM500 152c-115 0-115 71-115 113v43c0 59 15 73 73 73h84c58 0 73-14 73-73v-41c0-44 0-115-115-115zm-52 167v-54c0-42 0-50 52-50s52 6 52 51v53H448zm135-84c-15 0-29 11-30 27-3 17 10 33 27 35 110 14 215 56 304 120 14 11 33 7 44-7 10-14 7-33-8-44-97-71-212-116-333-131h-4zm-166-1h-4c-114 13-225 55-322 121-14 9-18 29-8 43s29 18 43 8c88-60 189-98 294-110 17-2 29-17 27-34-1-16-14-28-30-28z" glyph-name="briefcase" horiz-adv-x="1000" unicode=""/><glyph d="M500 60c-109 0-198 89-198 198 0 110 89 198 198 198s198-88 198-198c0-109-89-198-198-198zm0 334c-75 0-135-61-135-136 0-74 60-135 135-135s135 61 135 135c0 75-60 136-135 136zm45-213c-8 0-16 3-22 9l-88 88c-12 12-12 32 0 44s32 12 44 0l88-88c12-12 12-32 0-44-7-6-14-9-22-9zm-90-1c-7 0-15 3-22 9-12 12-12 32 0 44l88 88c12 12 32 12 44 0 13-12 13-32 0-44l-87-88c-7-6-15-9-23-9zM667-98H333C141-98 105-8 96 79L65 413c-5 43-6 108 37 156 38 42 100 62 190 62h416c91 0 153-21 190-62 43-48 42-113 37-157L904 79C895-8 859-98 667-98zM292 569c-71 0-119-14-144-41-20-23-27-58-21-109l31-334c7-66 25-120 175-120h334c150 0 168 54 175 120l31 333c6 52-1 87-21 110-25 27-73 41-144 41H292zm375 0c-17 0-32 14-32 31v33c0 75 0 102-102 102h-66c-102 0-102-27-102-102v-33c0-17-15-31-32-31s-31 14-31 31v33c0 74 0 165 165 165h66c165 0 165-91 165-165v-33c0-17-14-31-31-31zm0-319c-14 0-27 10-30 24-4 17 6 34 22 38 81 21 157 56 224 105 14 10 34 7 44-7s7-33-7-44c-74-53-157-92-246-115-2 0-4-1-7-1zm-334-1c-2 0-5 1-7 1-84 20-163 56-235 105-14 10-18 29-8 43 10 15 29 18 43 9 66-45 138-77 214-96 17-4 28-21 23-38-3-14-15-24-30-24z" glyph-name="brifecase-cross" horiz-adv-x="1000" unicode=""/><glyph d="M500 60c-109 0-198 89-198 198 0 110 89 198 198 198s198-88 198-198c0-109-89-198-198-198zm0 334c-75 0-135-61-135-136 0-74 60-135 135-135s135 61 135 135c0 75-60 136-135 136zm-23-204c-14 0-27 5-37 15l-27 28c-12 12-12 32 0 44s32 12 44 0l20-20 67 61c13 12 33 11 44-1 12-13 11-33-1-44l-74-69c-11-9-23-14-36-14zM667-98H333C141-98 105-8 96 79L65 413c-5 43-6 108 37 156 38 42 100 62 190 62h416c91 0 153-21 190-62 43-48 42-113 37-157L904 79C895-8 859-98 667-98zM292 569c-71 0-119-14-144-41-20-23-27-58-21-109l31-334c7-66 25-120 175-120h334c150 0 168 54 175 120l31 333c6 52-1 87-21 110-25 27-73 41-144 41H292zm375 0c-17 0-32 14-32 31v33c0 75 0 102-102 102h-66c-102 0-102-27-102-102v-33c0-17-15-31-32-31s-31 14-31 31v33c0 74 0 165 165 165h66c165 0 165-91 165-165v-33c0-17-14-31-31-31zm0-319c-14 0-27 10-30 24-4 17 6 34 22 38 81 21 157 56 224 105 14 10 34 7 44-7s7-33-7-44c-74-53-157-92-246-115-2 0-4-1-7-1zm-334-1c-2 0-5 1-7 1-84 20-163 56-235 105-14 10-18 29-8 43 10 15 29 18 43 9 66-45 138-77 214-96 17-4 28-21 23-38-3-14-15-24-30-24z" glyph-name="brifecase-tick" horiz-adv-x="1000" unicode=""/><glyph d="M500 60c-109 0-198 89-198 198 0 110 89 198 198 198s198-88 198-198c0-109-89-198-198-198zm0 334c-75 0-135-61-135-136 0-74 60-135 135-135s135 61 135 135c0 75-60 136-135 136zm-42-209c-10 0-20 6-26 15-9 15-4 35 11 43l31 20c4 1 5 5 5 8v39c0 17 14 31 31 31 18 0 32-13 32-31v-38c0-26-14-50-36-63l-31-19c-5-3-11-5-17-5zM667-98H333C141-98 105-8 96 79L65 413c-5 43-6 108 37 156 38 42 100 62 190 62h416c91 0 153-21 190-62 43-48 42-113 37-157L904 79C895-8 859-98 667-98zM292 569c-71 0-119-14-144-41-20-23-27-58-21-109l31-334c7-66 25-120 175-120h334c150 0 168 54 175 120l31 333c6 52-1 87-21 110-25 27-73 41-144 41H292zm375 0c-17 0-32 14-32 31v33c0 75 0 102-102 102h-66c-102 0-102-27-102-102v-33c0-17-15-31-32-31s-31 14-31 31v33c0 74 0 165 165 165h66c165 0 165-91 165-165v-33c0-17-14-31-31-31zm0-319c-14 0-27 10-30 24-4 17 6 34 22 38 81 21 157 56 224 105 14 10 34 7 44-7s7-33-7-44c-74-53-157-92-246-115-2 0-4-1-7-1zm-334-1c-2 0-5 1-7 1-84 20-163 56-235 105-14 10-18 29-8 43 10 15 29 18 43 9 66-45 138-77 214-96 17-4 28-21 23-38-3-14-15-24-30-24z" glyph-name="brifecase-timer" horiz-adv-x="1000" unicode=""/><glyph d="M269 496c-3 0-5 0-8 1-8 2-15 7-19 14l-65 107c-16 25-21 56-13 86 7 30 25 55 51 71s57 21 87 13c30-7 55-25 71-51l65-107c9-15 4-34-10-43l-143-87c-5-2-10-4-16-4zm6 233c-10 0-19-2-27-7-12-7-20-19-23-32-4-14-2-28 5-40l49-80 89 55-48 80c-7 11-19 20-32 23-5 1-9 1-13 1zM476-92c-13 0-25 2-37 5-37 11-66 36-84 72l-85 174c-45 92-13 202 75 256l131 80c88 54 201 32 262-51l116-156c23-32 32-70 25-107s-30-69-64-89L548-71c-23-14-48-21-72-21zm103 554c-24 0-48-7-71-20l-131-80c-61-37-82-112-52-176l86-174c9-19 25-33 45-39 19-6 40-2 58 9l268 163c18 11 31 28 35 48 3 20-1 40-14 57L688 406c-27 37-67 56-109 56zM320 332c-2 0-5 1-7 1-8 2-15 7-20 14l-86 143c-9 14-4 33 10 43l213 130c15 8 35 4 43-11l87-142c4-7 6-16 4-24s-7-15-14-19L336 337c-5-4-11-5-16-5zm-44 163 54-89 160 97-54 90-160-98zM665 5c-10 0-21 6-27 15l-68 113c-10 15-5 34 10 43s34 4 43-10l69-113c9-15 4-34-11-43-5-3-11-5-16-5zM558-60c-10 0-20 6-26 15L463 68c-9 15-4 34 10 43 15 9 35 4 43-10l69-113c9-15 4-34-10-43-5-3-11-5-17-5zM772 70c-11 0-21 6-27 15l-69 113c-9 15-4 34 11 43 14 9 34 4 43-10l68-113c10-15 5-34-10-43-5-3-10-5-16-5z" glyph-name="broom" horiz-adv-x="1000" unicode=""/><glyph d="M624-98H374C148-98 51-1 51 225v250c0 226 97 323 323 323h83c17 0 31-14 31-31s-14-32-31-32h-83c-192 0-261-68-261-260V225c0-192 69-260 261-260h250c192 0 260 68 260 260v83c0 17 14 32 31 32 18 0 32-15 32-32v-83C947-1 850-98 624-98zm-91 313c-7 0-13 2-18 5-9 6-14 16-14 26 0 5 0 10-1 15-3 22-13 42-30 59s-37 28-60 30c-4 1-9 1-14 1-11-1-21 4-27 12s-8 20-5 30c5 14 13 27 22 37l52 65c89 111 268 244 401 297 30 12 62 5 84-17 23-23 30-55 18-85-53-132-186-312-297-401l-66-52c-13-9-23-16-34-20-4-1-8-2-11-2zm-86 190c25-8 48-22 68-41 19-19 33-41 40-65l50 39c103 84 228 252 278 376 3 8 0 14-4 17-2 2-8 7-17 3-124-49-292-174-375-278l-40-51zM321 69c-27 0-52 10-71 29-22 22-33 53-29 84l8 82c9 84 78 147 164 149 7 0 15 0 23-1 38-5 72-22 99-49 26-26 43-58 47-94 1-8 2-16 2-23 0-46-18-88-50-121-26-26-60-42-99-47l-82-9h-12zm79 281h-4c-48-1-98-33-105-93l-8-82c-2-12 3-24 11-32 8-9 20-13 32-12l82 9c24 3 45 13 62 30 20 20 31 47 31 76 0 4 0 9-1 14-3 23-13 42-30 59s-38 28-61 31h-9zm259-30c-17 0-31 14-31 31 0 69-57 127-127 127-17 0-31 14-31 31s14 31 31 31c104 0 189-85 189-189 0-17-13-31-31-31z" glyph-name="brush-1" horiz-adv-x="1000" unicode=""/><glyph d="M500-98c-75 0-135 61-135 136v31H188c-31 0-60 12-82 34-21 21-33 50-33 80 0 59 45 109 104 115h636c4 0 8 0 12-1 25-2 50-14 69-33 24-23 36-56 33-91-5-58-57-104-119-104H635V38c0-75-60-136-135-136zM188 235h-5c-27-2-48-25-48-52 0-13 6-26 15-36 10-10 23-16 38-16h208c17 0 31-14 31-31V38c0-41 33-73 73-73s73 32 73 73v62c0 17 14 31 31 31h204c29 0 54 22 57 48 1 16-5 30-15 41-10 9-20 15-32 15l-5 1H188v-1zm632 0H188c-9-1-20 1-26 7-7 6-13 14-13 23l-21 363c-4 42 10 86 40 119 30 32 72 51 116 51h432c44 0 87-19 116-52 29-32 44-76 40-119l-20-362c-1-9-5-17-12-23-5-4-12-7-20-7zm-611 63h582l18 333v2c3 26-6 52-24 72-17 19-42 30-69 30H284c-26 0-52-11-70-30-18-20-26-46-23-72l18-335zm124 229c-17 0-31 14-31 31v209c0 17 14 31 31 31s31-14 31-31V558c0-17-14-31-31-31zm167 125c-17 0-31 14-31 31v84c0 17 14 31 31 31s31-14 31-31v-84c0-17-14-31-31-31z" glyph-name="brush-2" horiz-adv-x="1000" unicode=""/><glyph d="M833 472H167c-17 0-32 14-32 31v180c0 64 52 115 115 115h500c63 0 115-51 115-115V503c0-17-15-31-32-31zm-635 63h604v148c0 29-23 52-52 52H250c-29 0-52-23-52-52V535zM521-98h-42c-63 0-114 51-114 115v87c0 19-10 36-27 46l-123 69c-50 28-80 80-80 136v149c0 17 14 31 31 31h667c17 0 31-14 31-31V355c0-56-30-108-79-136l-124-69c-16-10-26-27-26-46V17c0-64-51-115-114-115zM198 472V355c0-34 18-65 47-82l124-69c36-21 58-59 58-100V17c0-29 23-52 52-52h42c29 0 52 23 52 52v87c0 41 22 80 58 100l124 69c29 17 47 48 47 82v117H198z" glyph-name="brush-3" horiz-adv-x="1000" unicode=""/><glyph d="M435 85c-7 0-12 1-18 5-9 6-14 15-14 26 0 6 0 13-1 19-4 30-17 56-39 78-23 23-51 37-81 41-5 0-12 1-19 0-10-1-20 4-27 13-6 8-8 19-4 29 6 17 15 33 26 45l64 81c111 138 334 304 498 370 35 13 72 5 97-20 26-26 34-64 21-98-66-164-232-387-370-498l-82-66c-15-11-28-18-40-23-3-2-8-2-11-2zM314 311c35-9 66-28 93-54 26-26 43-56 52-89l71 57c130 104 288 316 350 472 6 16-3 26-7 30-3 3-14 12-30 6-155-63-368-220-473-350l-56-72zM170-98c-31 0-61 13-84 35C60-37 48-1 52 35l11 103c11 102 95 177 198 179 8 1 18 0 28-1 45-6 86-26 118-58 32-33 51-71 57-114 1-9 2-19 2-28 0-55-21-106-59-145-32-31-74-51-120-57L184-97c-5-1-9-1-14-1zm99 352h-6c-63-1-129-44-138-123L114 28c-2-17 4-34 16-47 13-12 30-18 47-16l102 11c32 4 61 18 83 39 26 27 41 63 41 101 0 7 0 13-1 20-4 29-17 55-39 78-23 22-51 36-81 40h-13zm324-38c-17 0-31 14-31 31 0 92-74 166-166 166-17 0-31 14-31 31s14 31 31 31c126 0 228-102 228-228 1-17-14-31-31-31z" glyph-name="brush-4" horiz-adv-x="1000" unicode=""/><glyph d="M417 152c-17 0-32 14-32 31 0 70 0 157 157 157h166c94 0 94 12 94 93v84c0 81 0 93-94 93h-41c-17 0-32 15-32 32s15 31 32 31h41c146 0 157-59 157-156v-84c0-97-11-156-157-156H542c-94 0-94-25-94-94 0-17-14-31-31-31zm83 333H333c-13 0-25 9-29 22-29 87-29 183 0 269 4 13 16 22 29 22h167c13 0 26-9 30-21 29-87 29-183 0-270-4-13-16-22-30-22zm-143 63h120c16 61 16 126 0 187H357c-16-61-16-126 0-187zm-24-63h-41c-101 0-157 56-157 157s56 156 157 156h41c11 0 21-5 27-15 6-9 6-21 1-30-37-75-37-148 0-223 5-9 4-21-1-30-6-9-16-15-27-15zm-46 250c-62-1-89-29-89-93s27-92 88-94c-21 62-21 125 1 187zm255-250h-42c-11 0-21 6-27 15-5 10-6 21-1 31 37 74 37 147 0 222-5 10-4 21 1 30 6 10 16 15 27 15h42c101 0 156-55 156-156s-55-157-156-157zm5 250c21-62 21-125 0-187 62 2 88 30 88 94s-26 92-88 93zM438-98h-42c-43 0-94 16-94 94v125c0 77 51 94 94 94h42c42 0 93-17 93-94V-4c0-78-51-94-93-94zm-42 250c-31 0-31-9-31-31V-4c0-22 0-31 31-31h42c31 0 31 9 31 31v125c0 22 0 31-31 31h-42z" glyph-name="brush" horiz-adv-x="1000" unicode=""/><glyph d="M650 308c-135 0-245 110-245 245s110 245 245 245 245-110 245-245-110-245-245-245zm0 427c-101 0-183-81-183-182s82-183 183-183 182 82 182 183-82 182-182 182zM265 9c-88 0-159 71-159 159s71 160 159 160 160-72 160-160S353 9 265 9zm0 256c-53 0-97-43-97-97 0-53 43-97 97-97 53 0 97 44 97 97 0 54-44 97-97 97zM693-98c-77 0-138 62-138 138s62 138 138 138c75 0 137-62 137-138S768-98 693-98zm0 214c-42 0-76-34-76-76 0-41 34-75 76-75 41 0 75 34 75 75 0 42-34 76-75 76z" glyph-name="bubble" horiz-adv-x="1000" unicode=""/><glyph d="M442 129c-24 0-49 11-72 34L270 263c-45 45-45 98 0 143l167 167c6 5 13 9 22 9 8 0 16-4 22-9l183-183c10-11 16-25 16-39 0-15-6-28-17-39L514 163c-23-23-47-34-72-34zm17 378L315 363c-7-8-16-18-16-28s9-21 16-28l99-100c7-7 18-16 28-16s21 9 28 16l144 144-155 156zm0 13c-8 0-16 3-22 9l-34 33c-12 12-12 32 0 44s32 12 45 0l33-33c12-12 12-32 0-44-6-6-14-9-22-9zM269 305c-16 0-30 13-31 30s12 32 30 33l376 16c17 1 32-13 33-30 1-18-13-32-30-33l-377-16h-1zm417-203c-42 0-77 35-77 77 0 40 42 88 54 102 12 13 35 13 46 0 13-14 54-62 54-102 1-42-34-77-77-77zm0 107c-8-13-14-24-14-30 0-8 6-14 14-14s15 6 15 14c0 6-6 17-15 30zM500-98C253-98 52 103 52 350s201 448 448 448 448-201 448-448S747-98 500-98zm0 833c-212 0-385-172-385-385 0-212 173-385 385-385 213 0 385 173 385 385 0 213-172 385-385 385z" glyph-name="bucket-circle" horiz-adv-x="1000" unicode=""/><glyph d="M431 84c-28 0-55 13-81 39L232 240c-52 52-52 111 0 163l197 196c12 12 32 12 44 0l216-216c11-11 17-26 17-42s-6-31-17-41L512 123c-25-26-52-39-81-39zm20 449L277 359c-14-14-21-26-21-37s7-24 21-37l118-118c27-27 46-27 73 0l175 174-192 192zm0 13c-8 0-16 3-22 9l-39 40c-12 12-12 32 0 44s32 12 44 0l39-39c12-12 12-32 0-45-6-6-14-9-22-9zM227 292c-17 0-31 13-32 30 0 17 13 32 30 33l445 19c18 2 32-12 33-30 1-17-13-31-30-32l-445-20h-1zM721 52c-47 0-86 38-86 86 0 45 48 100 63 116 11 13 34 13 45 0 15-16 63-71 63-116 0-48-38-86-85-86zm0 131c-13-18-23-36-23-45 0-13 10-23 23-23s23 10 23 23c0 9-10 27-23 45zM625-98H375C149-98 52-1 52 225v250c0 226 97 323 323 323h250c226 0 323-97 323-323V225C948-1 851-98 625-98zM375 735c-192 0-260-68-260-260V225c0-192 68-260 260-260h250c192 0 260 68 260 260v250c0 192-68 260-260 260H375z" glyph-name="bucket-square" horiz-adv-x="1000" unicode=""/><glyph d="M376 27c-36 0-72 17-106 51L103 245c-34 34-51 70-51 106 0 37 17 72 51 106l278 278c6 6 14 10 22 10 9 0 17-4 22-10l307-306c13-13 21-31 21-50s-8-36-21-50L481 78c-33-34-69-51-105-51zm28 642L148 413c-22-22-33-43-33-62s11-40 33-61l167-167c43-44 79-44 123 0l250 250c3 3 3 9 0 12L404 669zm0 13c-8 0-16 3-22 9l-56 56c-12 12-12 32 0 44s32 12 44 0l56-56c12-12 12-32 0-44-6-6-14-9-22-9zM86 322c-16 0-30 13-31 30s13 32 30 33l631 27c17 1 31-12 32-30 1-17-12-32-30-32L88 322h-2zM667-98H125c-17 0-31 14-31 31s14 32 31 32h542c17 0 31-15 31-32s-14-31-31-31zm118 80c-59 0-108 49-108 108 0 61 71 141 86 157 11 13 34 13 45 0 15-16 86-96 86-156 0-61-49-109-109-109zm0 194c-22-30-45-66-45-86 0-25 20-46 45-46 26 0 46 21 46 46 0 20-23 57-46 86z" glyph-name="bucket" horiz-adv-x="1000" unicode=""/><glyph d="M917-98H83c-17 0-31 14-31 31s14 32 31 32h834c17 0 31-15 31-32s-14-31-31-31zm-792 0c-8 0-16 3-22 9-5 6-9 14-9 22v622c0 38 19 74 51 95l166 112c39 26 89 26 127 0l167-112c32-21 51-56 51-95V-66c0-17-13-32-31-32H125zm250 817c-10 0-20-3-29-9L180 599c-15-10-24-26-24-44l1-591 437 1v590c0 18-9 34-23 43L404 710c-9 6-19 9-29 9zM833-98c-18 0-32 14-32 31v167c0 17 14 31 32 31 17 0 31-14 31-31V-67c0-17-14-31-31-31zm0 167c-63 0-114 51-114 114v84c0 63 51 114 114 114 64 0 115-51 115-114v-84c0-63-51-114-115-114zm0 250c-28 0-52-24-52-52v-84c0-28 24-52 52-52 29 0 52 24 52 52v84c0 28-23 52-52 52zm-208-84H125c-17 0-31 15-31 32s14 31 31 31h500c17 0 31-14 31-31s-14-32-31-32zM375-98c-17 0-31 14-31 31V90c0 17 14 31 31 31s31-14 31-31V-67c0-17-14-31-31-31zm0 479c-52 0-94 42-94 94s42 94 94 94 94-42 94-94-42-94-94-94zm0 125c-17 0-31-14-31-31s14-31 31-31 31 14 31 31-14 31-31 31z" glyph-name="building-3" horiz-adv-x="1000" unicode=""/><glyph d="M958-98H42c-17 0-32 14-32 31s15 32 32 32h916c17 0 32-15 32-32s-15-31-32-31zm-134 0c-17 0-31 14-31 31v186c0 17 14 31 31 31s31-14 31-31V-67c0-17-13-31-31-31zm1 186c-68 0-123 55-123 122v95c0 68 55 123 123 123s123-55 123-123v-95c0-67-55-122-123-122zm0 277c-33 0-60-27-60-60v-95c0-33 27-60 60-60s60 27 60 60v95c0 33-27 60-60 60zM596-98c-17 0-31 14-31 31v666c0 66-28 94-93 94H212c-65 0-94-28-94-94V-67c0-17-14-31-31-31S56-84 56-67v666c0 101 55 157 156 157h260c100 0 155-56 155-157V-67c0-17-14-31-31-31zM448 475H242c-17 0-32 14-32 31s15 32 32 32h206c17 0 31-15 31-32s-14-31-31-31zm0-156H242c-17 0-32 14-32 31s15 31 32 31h206c17 0 31-14 31-31s-14-31-31-31zM344-98c-17 0-31 14-31 31V90c0 17 14 31 31 31s31-14 31-31V-67c0-17-14-31-31-31z" glyph-name="building-4" horiz-adv-x="1000" unicode=""/><glyph d="M521-98H170C105-98 51-45 51 20v618c0 64 24 113 67 140 44 28 100 27 159-2l185-91c51-25 90-88 90-144V-67c0-17-14-31-31-31zM190 735c-15 0-28-3-39-10-24-15-38-46-38-87V20c0-31 26-55 57-55h320v576c0 32-26 74-56 88l-185 91c-21 10-41 15-59 15zM784-98H521c-17 0-31 14-31 31v483c0 9 4 18 11 24 8 6 17 8 27 6l19-4 273-61c83-18 124-67 127-150V65c0-107-57-163-163-163zM552-35h232c73 0 100 27 100 100v161c-2 57-24 82-78 94l-254 57V-35zM374 444H229c-17 0-31 14-31 31s14 31 31 31h145c17 0 31-14 31-31s-14-31-31-31zm0-167H229c-17 0-31 14-31 31s14 32 31 32h145c17 0 31-15 31-32s-14-31-31-31zm260-167c-69 0-125 57-125 125v177c0 9 4 18 12 24 7 7 17 9 26 7l188-43c14-3 24-15 24-30V236c0-69-56-126-125-126zm-62 263V235c0-34 28-62 62-62 35 0 63 28 63 62v110l-125 28zm250-263c-69 0-125 57-125 125v135c0 9 4 18 11 24 8 6 17 8 27 6l84-19c83-18 125-67 127-150v-2c-3-66-58-119-124-119zm-63 221v-96c0-34 28-62 63-62 33 0 60 25 62 58-2 52-24 77-78 89l-47 11z" glyph-name="building" horiz-adv-x="1000" unicode=""/><glyph d="M279 69H173C96 69 52 113 52 190v487c0 77 44 121 121 121h179c77 0 121-44 121-121v-77c0-17-14-31-31-31s-32 14-32 31v77c0 43-15 58-58 58H173c-43 0-58-15-58-58V190c0-43 15-59 58-59h106c17 0 31-14 31-31s-14-31-31-31zM623-98H380c-84 0-132 48-132 132v465c0 84 48 132 132 132h243c84 0 132-48 132-132V34c0-84-48-132-132-132zM380 569c-50 0-70-20-70-70V34c0-50 20-69 70-69h243c50 0 70 19 70 69v465c0 50-20 70-70 70H380zM827 69H724c-17 0-31 14-31 31s14 31 31 31h103c43 0 58 16 58 59v487c0 43-15 58-58 58H648c-43 0-58-15-58-58v-77c0-17-15-31-32-31s-31 14-31 31v77c0 77 44 121 121 121h179c77 0 121-44 121-121V190c0-77-44-121-121-121zM583 360H417c-17 0-32 15-32 32s15 31 32 31h166c17 0 32-14 32-31s-15-32-32-32zm0-125H417c-17 0-32 15-32 32s15 31 32 31h166c17 0 32-14 32-31s-15-32-32-32zM500-98c-17 0-31 14-31 31V58c0 17 14 32 31 32s31-15 31-32V-67c0-17-14-31-31-31z" glyph-name="buildings-2" horiz-adv-x="1000" unicode=""/><glyph d="M542-98H208C108-98 52-43 52 58v334c0 101 56 156 156 156h209c17 0 31-14 31-31V58c0-66 28-93 94-93 17 0 31-15 31-32s-14-31-31-31zM208 485c-65 0-93-27-93-93V58c0-66 28-93 93-93h200c-15 24-23 55-23 93v427H208zm209 0H208c-17 0-31 15-31 32v83c0 63 51 115 115 115h129c10 0 19-5 25-12 6-8 8-18 5-28-2-9-3-19-3-33V517c0-17-14-32-31-32zm-177 63h145v104h-93c-29 0-52-23-52-52v-52zm343-271c-17 0-31 14-31 31v209c0 17 14 31 31 31s32-14 32-31V308c0-17-15-31-32-31zm167 0c-17 0-31 14-31 31v209c0 17 14 31 31 31s31-14 31-31V308c0-17-14-31-31-31zm0-375H583c-17 0-31 14-31 31v167c0 40 33 73 73 73h83c40 0 73-33 73-73V-67c0-17-14-31-31-31zM615-35h104v135c0 6-5 10-11 10h-83c-6 0-10-4-10-10V-35zM250 110c-17 0-31 15-31 32v166c0 17 14 32 31 32s31-15 31-32V142c0-17-14-32-31-32zM792-98H542C441-98 385-43 385 58v584c0 101 56 156 157 156h250c101 0 156-55 156-156V58c0-101-55-156-156-156zM542 735c-66 0-94-27-94-93V58c0-66 28-93 94-93h250c66 0 93 27 93 93v584c0 66-27 93-93 93H542z" glyph-name="buildings" horiz-adv-x="1000" unicode=""/><glyph d="M917-98H83c-17 0-31 14-31 31s14 32 31 32h834c17 0 31-15 31-32s-14-31-31-31zm-42 0H125c-17 0-31 14-31 31v667c0 126 72 198 198 198h416c126 0 198-72 198-198V-67c0-17-14-31-31-31zM156-35h688v635c0 93-43 135-136 135H292c-93 0-136-42-136-135V-35zm261 166H292c-17 0-32 14-32 32 0 17 15 31 32 31h125c17 0 31-14 31-31 0-18-14-32-31-32zm291 0H583c-17 0-31 14-31 32 0 17 14 31 31 31h125c17 0 32-14 32-31 0-18-15-32-32-32zM417 319H292c-17 0-32 14-32 31s15 31 32 31h125c17 0 31-14 31-31s-14-31-31-31zm291 0H583c-17 0-31 14-31 31s14 31 31 31h125c17 0 32-14 32-31s-15-31-32-31zM417 506H292c-17 0-32 14-32 32 0 17 15 31 32 31h125c17 0 31-14 31-31 0-18-14-32-31-32zm291 0H583c-17 0-31 14-31 32 0 17 14 31 31 31h125c17 0 32-14 32-31 0-18-15-32-32-32z" glyph-name="buliding" horiz-adv-x="1000" unicode=""/><glyph d="M704-98H296c-88 0-161 72-161 161v575c0 88 73 160 161 160h408c89 0 161-72 161-160V63c0-89-72-161-161-161zM296 735c-54 0-98-43-98-97V63c0-54 44-98 98-98h408c54 0 98 43 98 98v575c0 53-44 97-98 97H296zm475-458H229c-51 0-94 42-94 94v83c0 52 43 94 94 94h542c52 0 94-42 94-94v-83c0-52-42-94-94-94zM229 485c-17 0-31-14-31-31v-83c0-17 14-31 31-31h542c17 0 31 14 31 31v83c0 17-14 31-31 31H229zM333 69c-13 0-27 5-36 15-3 2-5 5-7 8s-3 6-5 9c-1 3-2 7-3 10 0 3-1 7-1 10s1 7 1 10c1 3 2 7 3 10 2 3 3 6 5 9s4 5 7 8c19 19 53 19 73 0 3-3 5-5 7-8 1-3 3-6 4-9 2-3 3-7 4-10v-20c-1-3-2-7-4-10-1-3-3-6-4-9-2-3-4-6-7-8-10-10-23-15-37-15zm334 0c-14 0-27 5-37 15s-15 23-15 37 5 27 15 37c19 19 54 19 73 0 10-10 16-23 16-37s-6-27-16-37c-9-10-23-15-36-15zm-63 541H396c-17 0-31 15-31 32s14 31 31 31h208c17 0 31-14 31-31s-14-32-31-32z" glyph-name="bus" horiz-adv-x="1000" unicode=""/><glyph d="M646 194c-8 0-16 0-23 1-16 0-28 13-30 28-9 117-103 211-219 220-16 1-28 14-29 29 0 8-1 16-1 23 0 167 136 303 302 303 167 0 302-136 302-303 0-166-135-301-302-301zM406 502c124-22 224-122 246-246 129 4 233 109 233 240 0 132-107 239-239 239-130 0-236-104-240-233zM354-98C188-98 52 38 52 204c0 167 136 302 302 302 8 0 16 0 24-1 147-11 266-130 277-277 0-8 1-16 1-24C656 38 521-98 354-98zm0 542c-132 0-239-108-239-240S222-35 354-35 594 72 594 204c0 7-1 14-1 20-9 116-104 210-220 219-5 0-12 1-19 1zm0-375c-11 0-22 6-27 16l-33 59-59 33c-10 5-16 16-16 27 0 12 6 22 16 28l59 32 33 59c11 20 43 20 55 0l32-59 59-32c10-6 17-16 17-28 0-11-7-22-17-27l-59-33-32-59c-6-10-17-16-28-16zm-39 135 17-9c6-3 10-7 13-13l9-17 10 17c3 6 7 10 12 13l17 9-17 10c-5 3-9 7-12 12l-10 17-9-17c-3-5-7-9-13-12l-17-10z" glyph-name="buy-crypto" horiz-adv-x="1000" unicode=""/></font>
</defs>
</svg>
